img image001 image001 image001 image001 image001 image001 image001 image001 image001 image001 image001 image001 image001 image001 image001

Planets Sun Sun Sun
Статистика раздачи
Автор: Nickolas3434 | Размер: 17.83 ГБ | Добавлен: 08 мар 2014
Раздают: 12    Качают: 37
Скачать торрент
Скачать торрент
Описание торрента

СообщениеДобавлено: 08 мар 2014 

Анатомия страсти / Анатомия Грей / Grey's Anatomy

Год выпуска: 2013
Страна: США
Жанр: драма, мелодрама
Продолжительность: ~41 мин

Перевод: Профессиональный (многоголосый закадровый) Fox Life
Режиссёр: Роб Корн / Rob Corn

В ролях: Эллен Помпео в роли Мередит Грей, Патрик Демпси в роли Дерека Шепарда, Сандра О в роли Кристины Янг, Джастин Чемберс в роли Алекса Карева, Чандра Уилсон в роли Миранды Бейли, Джеймс Пикенс мл. в роли Ричарда Вебера, Сара Рамирез в роли Келли Торрес, Кевин МакКидд в роли Оуэна Ханта, Джессика Кэпшоу в роли Аризоны Роббинс, Джесси Уильямс в роли Джексона Эйвери, Сара Дрю в роли Эйприл Кепнер, Камилла Ладингтон в роли Джо Уилсон, Гай Чарльз в роли Шейна Росса, Джеррика Хинтон в роли Стэфани Эдвардс и Тесса Феррер в роли Леа Мерфи

Описание:
Главная героиня Мередит Грей — молодая женщина-хирург, работает в городской больнице Сиэтла. Ее окружают интерны с разными характерами, но общей целью – стать хорошими врачами. Они молоды, целеустремленны и настолько красивы, что даже медицинская форма им к лицу.
12 главных героев одновременно конкуренты и любовники, и поэтому их ждет целая буря страстей: служебные романы и влюбленности в пациентов, любовные измены и профессиональные предательства, медицинские ошибки и катастрофы в личной жизни, врачебные тайны и личные секреты. В стенах больницы Сиэтла тесно переплелись любовь, долг, болезнь и смерть.
Сэмпл

Качество: HDTV 1080i
Контейнер: MKV

Видео: AVC, 1920х1080 (16:9), 25 fps, ~7000 kbps, ~0.140 bit/pixel
Аудио: Русский, MVO FOX Life, MP2, 48 kHz, 2 ch, 192 kbps
Субтитры: отсутствуют

Внимание, 07.03.14 торрент-файл перезалит!
Внимание! Раздача ведётся путём добавления новых серий; при каждом добавлении создаётся новый торрент. Чтобы начать докачку новой серии, пользователям необходимо сделать следующее:
(1) остановить скачивание,
(2) удалить старый торрент у себя из клиента (старые серии удалять не надо),
(3) скачать новый торрент и запустить его у себя в клиенте вместо старого, при этом указать клиенту путь в старую папку куда и должно происходить скачивание новых серий.

Ваш клиент при этом должен произвести хеширование (проверку) старой папки (если не производит сам - помогите ему сделать это), и будет докачивать только те серии которых у вас ещё нет. Старые серии при этом не удаляются, а продолжают раздаваться!

Eсли вы уже удалили старые серии, то предотвратить повторную закачку старых серий можно, отжав галочку в соответствующих местах при запуске нового торрента. По возможности, желательно не удалять старые серии как можно дольше чтобы релизёр не столько продолжал раздавать старые серии, а смог сконцентрироваться на новых.

Серия#1 Судьба / Seal Our Fate
Серия#2 Будь со мной / I Want You With Me
Серия#3 Милосердие / Everybody's Crying Mercy
Серия#4 Разодеться в пух и прах / Puttin' on the Ritz
Серия#5 Наверно, было больно / I Bet It Stung
Серия#6 Карта / Map of You
Серия#7 Триллер / Thriller
Серия#8 Двое против одного / Two Against One
Серия#9 Тяжело сказать "прости" / Sorry Seems to be the Hardest Word

General
Unique ID : 210753262907750136873178504841854876523 (0x9E8D9A1C174E0B72B8F1023878767B6B)
Complete name : E:VideoTorrentsgreys_anatomy.s10.rus.hdtvrip.1080i.foxlifegreys_anatomy.s10e01.rus.hdtvrip.1080i.foxlife.mkv
Format : Matroska
Format version : Version 2
File size : 2.23 GiB
Duration : 41mn 13s
Overall bit rate : 7 728 Kbps
Encoded date : UTC 2013-11-09 17:24:00
Writing application : mkvmerge v6.3.0 ('You can't stop me!') built on Jun 28 2013 20:09:41
Writing library : libebml v1.3.0 + libmatroska v1.4.0

Video
ID : 1
Format : AVC
Format/Info : Advanced Video Codec
Format profile : Main@L4.0
Format settings, CABAC : Yes
Format settings, ReFrames : 3 frames
Codec ID : V_MPEG4/ISO/AVC
Duration : 41mn 13s
Bit rate : 7 382 Kbps
Width : 1 920 pixels
Height : 1 080 pixels
Display aspect ratio : 16:9
Frame rate mode : Constant
Frame rate : 25.000 fps
Standard : Component
Color space : YUV
Chroma subsampling : 4:2:0
Bit depth : 8 bits
Scan type : Interlaced
Scan order : Top Field First
Bits/(Pixel*Frame) : 0.142
Stream size : 2.13 GiB (96%)
Default : Yes
Forced : No
Color primaries : BT.709
Transfer characteristics : BT.709
Matrix coefficients : BT.709

Audio
ID : 2
Format : MPEG Audio
Format version : Version 1
Format profile : Layer 2
Codec ID : A_MPEG/L2
Codec ID/Hint : MP2
Duration : 41mn 13s
Bit rate mode : Constant
Bit rate : 192 Kbps
Channel(s) : 2 channels
Sampling rate : 48.0 KHz
Compression mode : Lossy
Stream size : 56.6 MiB (2%)
Language : Russian
Default : Yes
Forced : No





   Похожие торренты   Торрент   Размер 
В этой теме нет новых непрочитанных сообщений. Анатомия страсти / Анатомия Грей / Grey's Anatomy [10x01-07] (2013) WEB-DL 720p | Fox Life

2 | 2

9.83 ГБ

В этой теме нет новых непрочитанных сообщений. Анатомия страсти / Анатомия Грей / Grey's Anatomy [10x01-07] (2013) WEB-DLRip | Fox Life

96 | 5

3.42 ГБ

В этой теме нет новых непрочитанных сообщений. Анатомия страсти / Анатомия Грей / Grey's Anatomy [10x01-13] (2013) WEB-DL 720p | Sub

6 | 9

9.15 ГБ

В этой теме нет новых непрочитанных сообщений. Анатомия страсти / Анатомия Грей / Grey's Anatomy [10x01-12] (2013) WEB-DL 720p | Sub

0 | 4

8.42 ГБ

В этой теме нет новых непрочитанных сообщений. Анатомия страсти / Анатомия Грей / Grey's Anatomy [10x01-10] (2013) WEB-DL 720p | Tomas

2 | 2

14.64 ГБ

В этой теме нет новых непрочитанных сообщений. Анатомия страсти / Анатомия Грей / Grey's Anatomy [10x01-13] (2013) WEB-DL 720p | Tomas

14 | 17

18.89 ГБ

В этой теме нет новых непрочитанных сообщений. Анатомия страсти / Анатомия Грей / Grey's Anatomy [10x01-13] (2013) HDTVRip | Tomas

50 | 151

5.26 ГБ




Вы не можете начинать темы
Вы не можете отвечать на сообщения
Вы не можете редактировать свои сообщения
Вы не можете удалять свои сообщения
Вы не можете добавлять вложения

Перейти:  
Для Мосгорсуда, Роскомнадзора и рекламодателей: mosgorsud-torrent[собачка]yandex.ru
 Вход
ppkBB3cker v.2 © 2008-2014 @ PPK
[ Time : 0.051s | 15 Queries | GZIP : Off ]

Торрент трекер RUTOR.IN, Не можете зайти на rutor.org? Какой новый адрес рутор? Какое зеркало рутор? Не работает rutor.org и зеркала? Тогда наш торрент специально для вас. Rutor.in неофициальное зеркало rutor. В случае если у Вас заблокирован rutor или вдруг Вы не можете на него зайти, то Вы без труда сможете скачать бесплатно и без рекламы последние новинки кино, игр, сериалов и прочего у нас, на Rutor.in. Не нужно использовать прокси, чтобы зайти на рутор, достаточно воспользоваться нашим ресурсом. Все новые фильмы, игры, сериалы, книги и музыка за 2013 и 2014 годы через торрент бесплатно. Скачивайте фильмы в хорошем качестве, игры для пк, xbox, playstation без регистрации. У нас вы найдете новые Зарубежные сериалы и Русские сериалы 2013, 2014, 2015 годов. Оставайтесь с нами, качайте любимые фильмы, игры, сериалы, книги и музыку.
cron