img image001 image001 image001 image001 image001 image001 image001 image001 image001 image001 image001 image001 image001 image001 image001

Planets Sun Sun Sun
Статистика раздачи
Автор: Nickolas3434 | Размер: 14.72 ГБ | Добавлен: 10 мар 2014
Раздают: 405    Качают: 333
Скачать торрент
Скачать торрент
Описание торрента

СообщениеДобавлено: 10 мар 2014 


Страна: Россия
Производство: ООО «АЛЬЯНС ПРОФИ»
Жанр: Детектив
Год выпуска: 2013

Продолжительность: 32 х ~ 00:44:00
Язык: Русский

Режиссер: Андрей Линич, Рустам Мосафир
В ролях: Сергей Борисов, Роман Богданов, Алексей Фаддеев, Василий Шмаков, Рамиль Сабитов, Сергей Векслер, Татьяна Косач-Брындина, Олег Доброван, Прохор Зикора, Марина Черняева, Александр Пальчиков, Елена Старостина, Алексей Зуев, Алексей Лунев, Андрей Железный, Сергей Калашников, Руслан Ягудин, Софья Максимча, Мария Буравлева, Юрий Горин, Александр Самойленко
Описание: Главный герой сериала – Денис Попов. Он возглавляет работу уголовного розыска в одном из Отделов внутренних дел Москвы. Коллеги Дениса – оперативники Лукин, Могилин и Жуков давно стали сплоченной командой и во всем поддерживают своего шефа - опытного, справедливого, талантливого сыщика. У него рука не дрогнет, нервы не сдадут, а преступник будет найден! Иногда он может сорваться, может послать, а то и врезать, но это его земля, и здесь действуют его правила. Сотрудники отдела Попова расследуют не самые «резонансные» дела; их уровень – это бытовые убийства, грабежи, разбои и кражи - то, что может случиться с каждым. Сыщики - обыкновенные, узнаваемые и не слишком счастливые в личной жизни люди, потому что главное в их жизни – розыск, и ради поиска преступников они порой совсем забывают о себе...



Исходник: DVD9 R5

Тип релиза: DVDRip

Контейнер: AVI
Видео: XviD, ~ 1383 Кбит/с, 720х400
Аудио: АС3, 2 ch, 96 Кбит/с
Общее
Полное имя : D:1АААРОЗЫСК 1-212 серия.avi
Формат : AVI
Формат/Информация : Audio Video Interleave
Размер файла : 471 Мбайт
Продолжительность : 43 м.
Общий поток : 1528 Кбит/сек
Программа кодирования : VirtualDubMod 1.5.10.3 | www.virtualdub-fr.org || (build 2550/release)
Библиотека кодирования : VirtualDubMod build 2550/release

Видео
Идентификатор : 0
Формат : MPEG-4 Visual
Профиль формата : Advanced Simple@L5
Параметр BVOP формата : 2
Параметр QPel формата : Нет
Параметр GMC формата : Без точки перехода
Параметр матрицы формата : Default (MPEG)
Режим смешивания : Сжатый битовый поток
Идентификатор кодека : XVID
Идентификатор кодека/Подсказка : XviD
Продолжительность : 43 м.
Битрейт : 1423 Кбит/сек
Ширина : 720 пикселей
Высота : 400 пикселей
Соотношение сторон : 16:9
Частота кадров : 23,976 кадра/сек
Цветовое пространство : YUV
Субдискретизация насыщенности : 4:2:0
Битовая глубина : 8 бит
Тип развёртки : Прогрессивная
Метод сжатия : С потерями
Бит/(Пиксели*Кадры) : 0.206
Размер потока : 438 Мбайт (93%)
Библиотека кодирования : XviD 1.2.1 (UTC 2008-12-04)

Аудио
Идентификатор : 1
Формат : AC-3
Формат/Информация : Audio Coding 3
Расширение режима : CM (complete main)
Параметр Endianness формата : Big
Идентификатор кодека : 2000
Продолжительность : 43 м.
Вид битрейта : Постоянный
Битрейт : 96,0 Кбит/сек
Каналы : 2 канала
Расположение каналов : Front: L R
Частота : 48,0 КГц
Битовая глубина : 16 бит
Метод сжатия : С потерями
Размер потока : 29,6 Мбайт (6%)
Выравнивание : Разделение по промежуткам
Продолжительность промежутка : 42 мс. (1,00 видеокадр)
Время предзагрузки промежутка : 500 мс.





Релиз группа:

Автор рипа:



   Похожие торренты   Торрент   Размер 
В этой теме нет новых непрочитанных сообщений. Розыск [01-02x01-32] (2013) WEB-DL 720p от MediaClub

83 | 102

19.8 ГБ

В этой теме нет новых непрочитанных сообщений. Розыск [01-16 серии из 16] (2013) SATRip

440 | 221

7.74 ГБ

В этой теме нет новых непрочитанных сообщений. Розыск 2 [01-16 серия из 16] (2013) SATRip

425 | 94

7.94 ГБ

В этой теме нет новых непрочитанных сообщений. Розыск [01x01-08 из 16] (2013) HDTVRip-AVC от Files-x

10 | 0

6.67 ГБ

В этой теме нет новых непрочитанных сообщений. Розыск [02х01-02 из 16] (2013) HDTVRip-AVC от Files-x

25 | 17

5.44 ГБ

В этой теме нет новых непрочитанных сообщений. Розыск [02х01-02 из 16] (2013) HDTVRip от Files-x

51 | 39

4.3 ГБ

В этой теме нет новых непрочитанных сообщений. Розыск [02х01-02 из 16] (2013) HDTVRip от Files-x

12 | 6

1.07 ГБ




Вы не можете начинать темы
Вы не можете отвечать на сообщения
Вы не можете редактировать свои сообщения
Вы не можете удалять свои сообщения
Вы не можете добавлять вложения

Перейти:  
Для Мосгорсуда, Роскомнадзора и рекламодателей: mosgorsud-torrent[собачка]yandex.ru
 Вход
ppkBB3cker v.2 © 2008-2014 @ PPK
[ Time : 0.133s | 14 Queries | GZIP : Off ]

Торрент трекер RUTOR.IN, Не можете зайти на rutor.org? Какой новый адрес рутор? Какое зеркало рутор? Не работает rutor.org и зеркала? Тогда наш торрент специально для вас. Rutor.in неофициальное зеркало rutor. В случае если у Вас заблокирован rutor или вдруг Вы не можете на него зайти, то Вы без труда сможете скачать бесплатно и без рекламы последние новинки кино, игр, сериалов и прочего у нас, на Rutor.in. Не нужно использовать прокси, чтобы зайти на рутор, достаточно воспользоваться нашим ресурсом. Все новые фильмы, игры, сериалы, книги и музыка за 2013 и 2014 годы через торрент бесплатно. Скачивайте фильмы в хорошем качестве, игры для пк, xbox, playstation без регистрации. У нас вы найдете новые Зарубежные сериалы и Русские сериалы 2013, 2014, 2015 годов. Оставайтесь с нами, качайте любимые фильмы, игры, сериалы, книги и музыку.