img image001 image001 image001 image001 image001 image001 image001 image001 image001 image001 image001 image001 image001 image001 image001

Planets Sun Sun Sun
Статистика раздачи
Автор: Nickolas3434 | Размер: 6.99 ГБ | Добавлен: 10 мар 2014
Раздают: 51    Качают: 90
Скачать торрент
Скачать торрент
Описание торрента

СообщениеДобавлено: 10 мар 2014 

Год выпуска: 2014
Жанр: драма, криминал
Режиссер: Кэри Фукунага
В ролях: Мэттью МакКонахи, Вуди Харрельсон, Мишель Монахэн, Брюс Эллиотт, Рендал Гонсалес, Тори Киттлз, Дэвид Стивен Митчелл, Майкл Поттс, Эрик Прайс, Мэдисон Вульф

Описание:
Главные герои — два детектива. В 2012 году в штате Луизиана повторно открывается дело о серийном убийстве в 1995 году. Детективы познакомились 17 лет назад, когда началось расследование, и с тех пор вместе охотились за киллером. Повествование будет вестись как в наше время, так и откатится назад, в середину девяностых.



Страна: США
Продолжительность: ~ 01:00:00
Перевод: Многоголосый, закадровый / Новамедиа
Субтитры: Russian

Качество: HDTVRip-AVC
HD стандарт: 576p
Формат: .mkv
Видео: 1024x576 at 25.000 fps, MPEG-4 AVC, ~2389 kbps
Аудио: 48 kHz, AC3, 3/2 (L,C,R,l,r) + LFE ch, ~384.00 kbps



General
Unique ID : 242931534551135162942518464114617890659 (0xB6C2E9640B36FDB7A217022D16CE3763)
Complete name : F:СериалTrue.Detective.S01.(576P).HDTVRip-AVCTrue.Detective.S01E07.576P.HDTVRip-AVC.[-=DoMiNo=-].mkv
Format : Matroska
Format version : Version 2
File size : 1 022 MiB
Duration : 51mn 26s
Overall bit rate : 2 777 Kbps
Encoded date : UTC 2014-03-09 12:31:10
Writing application : mkvmerge v6.1.0 ('Old Devil') built on Mar 4 2013 09:10:42
Writing library : libebml v1.3.0 + libmatroska v1.4.0

Video
ID : 1
Format : AVC
Format/Info : Advanced Video Codec
Format profile : High@L4.1
Format settings, CABAC : Yes
Format settings, ReFrames : 12 frames
Codec ID : V_MPEG4/ISO/AVC
Duration : 51mn 26s
Bit rate : 2 389 Kbps
Width : 1 024 pixels
Height : 576 pixels
Display aspect ratio : 16:9
Frame rate mode : Constant
Frame rate : 25.000 fps
Color space : YUV
Chroma subsampling : 4:2:0
Bit depth : 8 bits
Scan type : Progressive
Bits/(Pixel*Frame) : 0.162
Stream size : 860 MiB (84%)
Writing library : x264 core 130 r2273 b3065e6
Encoding settings : cabac=1 / ref=12 / deblock=1:-3:-3 / analyse=0x3:0x133 / me=umh / subme=11 / psy=1 / psy_rd=1.00:0.10 / mixed_ref=1 / me_range=32 / chroma_me=1 / trellis=2 / 8x8dct=1 / cqm=0 / deadzone=21,11 / fast_pskip=0 / chroma_qp_offset=-6 / threads=6 / lookahead_threads=6 / sliced_threads=0 / slices=4 / nr=0 / decimate=0 / interlaced=0 / bluray_compat=0 / constrained_intra=0 / bframes=8 / b_pyramid=2 / b_adapt=2 / b_bias=0 / direct=3 / weightb=1 / open_gop=1 / weightp=2 / keyint=240 / keyint_min=23 / scenecut=40 / intra_refresh=0 / rc_lookahead=60 / rc=2pass / mbtree=1 / bitrate=2389 / ratetol=1.0 / qcomp=0.60 / qpmin=0 / qpmax=69 / qpstep=4 / cplxblur=20.0 / qblur=0.5 / ip_ratio=1.40 / aq=1:1.50
Default : Yes
Forced : No

Audio
ID : 2
Format : AC-3
Format/Info : Audio Coding 3
Mode extension : CM (complete main)
Format settings, Endianness : Big
Codec ID : A_AC3
Duration : 51mn 26s
Bit rate mode : Constant
Bit rate : 384 Kbps
Channel(s) : 6 channels
Channel positions : Front: L C R, Side: L R, LFE
Sampling rate : 48.0 KHz
Bit depth : 16 bits
Compression mode : Lossy
Stream size : 141 MiB (14%)
Default : Yes
Forced : No



   Похожие торренты   Торрент   Размер 
В этой теме нет новых непрочитанных сообщений. Настоящий детектив / True Detective [S01] (2014) HDTVRip-AVC 576p | Amedia

149 | 159

7.98 ГБ

В этой теме нет новых непрочитанных сообщений. Настоящий детектив / True Detective [01x01-04] (2014) HDTVRip | Amedia

13 | 8

2.73 ГБ

В этой теме нет новых непрочитанных сообщений. Настоящий детектив / True Detective [01x01-07] (2014) HDTVRip | Amedia

137 | 233

4.78 ГБ

В этой теме нет новых непрочитанных сообщений. Настоящий детектив / True Detective [01x01-06] (2014) HDTVRip | Amedia

7 | 10

4.1 ГБ

В этой теме нет новых непрочитанных сообщений. Настоящий детектив / True Detective [01x01-05] (2014) HDTVRip | Amedia

255 | 270

3.42 ГБ

В этой теме нет новых непрочитанных сообщений. Настоящий Детектив / True Detective [01x01-07 из 08] (2014) HDTVRip 720p | Amedia

378 | 852

11.35 ГБ

В этой теме нет новых непрочитанных сообщений. Настоящий Детектив / True Detective [01x01-05] (2014) HDTVRip 720p | Amedia

7 | 47

8.62 ГБ




Вы не можете начинать темы
Вы не можете отвечать на сообщения
Вы не можете редактировать свои сообщения
Вы не можете удалять свои сообщения
Вы не можете добавлять вложения

Перейти:  
Для Мосгорсуда, Роскомнадзора и рекламодателей: mosgorsud-torrent[собачка]yandex.ru
 Вход
ppkBB3cker v.2 © 2008-2014 @ PPK
[ Time : 0.061s | 17 Queries | GZIP : Off ]

cron