img image001 image001 image001 image001 image001 image001 image001 image001 image001 image001 image001 image001 image001 image001 image001

Planets Sun Sun Sun
Статистика раздачи
Автор: Nickolas3434 | Размер: 16.19 ГБ | Добавлен: 11 мар 2014
Раздают: 3    Качают: 44
Скачать торрент
Скачать торрент
Описание торрента

СообщениеДобавлено: 11 мар 2014 

Информация о фильме
Название: Люди будущего
Оригинальное название: The Tomorrow People
Год выхода: 2013
Жанр: Фантастика, драма
Режиссер: Дэнни Кэннон
В ролях: Робби Амелл, Бернадетт Бек, Пейтон Лист, Мадлен Манток, Люк Митчелл, Марк Пеллегрино, Стефано Вильябона, Аарон Йу, Сара Кларк, Питер Гринвуд

О фильме: В центре сюжета — Стивен Джеймсон (Робби Амелл), открывший в себе способность к телепортации и страдающий от голосов в голове. Его главная проблема в том, что он даже не может предугадать, где проснется на следующий день. Пойдя на поводу у одного из голосов, он знакомится с другими Людьми будущего, у каждого из которых имеется собственная способность. Но они вынуждены прятаться от «охотников» на заброшенной станции метро. Ученые видят в этих ребятах угрозу и предлагают Стивену истребить новых знакомых в обмен на обычную жизнь, какая была у него раньше. Между тем, Люди будущего утверждают, что теперь они для Стивена — и новая жизнь, и новая семья. Юноша вынужден сделать главный выбор в своей жизни...



01. Пилот
02. Погружение
03. Прерванная жизнь
04. Убей или умри
05. Все будущие вечеринки
06. Примите соболезнования
07. Чистилище
08. Танатос
09. На пороге смерти
10. Цитадель
11. Вмешательство
12. Живая мишень
13. Все рушится
14. Сторож брату своему
15. Враг моего врага


Выпущено: США
Студия: Berlanti Productions, CBS Television Studios, Fremantle Media North America
Продолжительность: 14 x ~ 00:43:00
Перевод: Профессиональный многоголосый

Файл
Кодек: MPEG-4 AVC
Качество: WEB-DLRip-AVC
Видео: 2100 Кбит/с, 1024x576, 23.976 кадр/с
Звук:
Аудио #1: Русский (AC3, 6 ch, 384 Кбит/с) / Профессиональный многоголосый (LostFilm)
Аудио #2: Русский (AC3, 6 ch, 384 Кбит/с) / Профессиональный многоголосый (NewStudio)
Аудио #3: Русский (AC3, 6 ch, 384 Кбит/с) / Профессиональный многоголосый (BaiBaKo)
Аудио #4: Английский (AC3, 6 ch, 384 Кбит/с)

Семпл






General
Unique ID : 245471634465565459018829134598887094660 (0xB8AC1DFC545356299FBF3EDC808EB984)
Complete name : D:µTorrent загрузкиThe.Tomorrow.People.S01.WEB-DLRip(AVC)The.Tomorrow.People.s01e01.AVC.MINION.mkv
Format : Matroska
Format version : Version 4 / Version 2
File size : 1.08 GiB
Duration : 42mn 33s
Overall bit rate : 3 638 Kbps
Movie name : release MediaClub - MINION
Encoded date : UTC 2014-02-10 14:10:28
Writing application : mkvmerge v6.7.0 ('Back to the Ground') 32bit built on Jan 8 2014 15:03:17
Writing library : libebml v1.3.0 + libmatroska v1.4.1

Video
ID : 1
Format : AVC
Format/Info : Advanced Video Codec
Format profile : High@L4.1
Format settings, CABAC : Yes
Format settings, ReFrames : 8 frames
Codec ID : V_MPEG4/ISO/AVC
Duration : 42mn 33s
Bit rate : 2 100 Kbps
Width : 1 024 pixels
Height : 576 pixels
Display aspect ratio : 16:9
Frame rate mode : Constant
Frame rate : 23.976 fps
Color space : YUV
Chroma subsampling : 4:2:0
Bit depth : 8 bits
Scan type : Progressive
Bits/(Pixel*Frame) : 0.148
Stream size : 618 MiB (56%)
Title : 01 - Пилот
Writing library : x264 core 138 r2358 9e941d1
Encoding settings : cabac=1 / ref=8 / deblock=1:-1:-1 / analyse=0x3:0x133 / me=umh / subme=10 / psy=1 / psy_rd=1.00:0.10 / mixed_ref=1 / me_range=16 / chroma_me=1 / trellis=2 / 8x8dct=1 / cqm=0 / deadzone=21,11 / fast_pskip=0 / chroma_qp_offset=-3 / threads=6 / lookahead_threads=1 / sliced_threads=0 / nr=0 / decimate=0 / interlaced=0 / bluray_compat=0 / constrained_intra=0 / bframes=8 / b_pyramid=2 / b_adapt=2 / b_bias=0 / direct=3 / weightb=1 / open_gop=0 / weightp=2 / keyint=240 / keyint_min=23 / scenecut=40 / intra_refresh=0 / rc=2pass / mbtree=0 / bitrate=2100 / ratetol=1.0 / qcomp=0.60 / qpmin=10 / qpmax=51 / qpstep=4 / cplxblur=20.0 / qblur=0.5 / ip_ratio=1.40 / pb_ratio=1.30 / aq=1:1.00
Language : English
Default : Yes
Forced : No

Audio #1
ID : 2
Format : AC-3
Format/Info : Audio Coding 3
Mode extension : CM (complete main)
Format settings, Endianness : Big
Codec ID : A_AC3
Duration : 42mn 33s
Bit rate mode : Constant
Bit rate : 384 Kbps
Channel count : 6 channels
Channel positions : Front: L C R, Side: L R, LFE
Sampling rate : 48.0 KHz
Bit depth : 16 bits
Compression mode : Lossy
Stream size : 117 MiB (11%)
Title : LostFilm
Language : Russian
Default : Yes
Forced : No

Audio #2
ID : 3
Format : AC-3
Format/Info : Audio Coding 3
Mode extension : CM (complete main)
Format settings, Endianness : Big
Codec ID : A_AC3
Duration : 42mn 33s
Bit rate mode : Constant
Bit rate : 384 Kbps
Channel count : 6 channels
Channel positions : Front: L C R, Side: L R, LFE
Sampling rate : 48.0 KHz
Bit depth : 16 bits
Compression mode : Lossy
Stream size : 117 MiB (11%)
Title : NewStudio
Language : Russian
Default : No
Forced : No

Audio #3
ID : 4
Format : AC-3
Format/Info : Audio Coding 3
Mode extension : CM (complete main)
Format settings, Endianness : Big
Codec ID : A_AC3
Duration : 42mn 33s
Bit rate mode : Constant
Bit rate : 384 Kbps
Channel count : 6 channels
Channel positions : Front: L C R, Side: L R, LFE
Sampling rate : 48.0 KHz
Bit depth : 16 bits
Compression mode : Lossy
Stream size : 117 MiB (11%)
Title : BaibaKo
Language : Russian
Default : No
Forced : No

Audio #4
ID : 5
Format : AC-3
Format/Info : Audio Coding 3
Mode extension : CM (complete main)
Format settings, Endianness : Big
Codec ID : A_AC3
Duration : 42mn 33s
Bit rate mode : Constant
Bit rate : 384 Kbps
Channel count : 6 channels
Channel positions : Front: L C R, Side: L R, LFE
Sampling rate : 48.0 KHz
Bit depth : 16 bits
Compression mode : Lossy
Stream size : 117 MiB (11%)
Language : English
Default : No
Forced : No


Релиз от:



   Похожие торренты   Торрент   Размер 
В этой теме нет новых непрочитанных сообщений. Люди будущего / The Tomorrow People [01х01-21 из 22] (2013) WEB-DLRip-AVC от MediaClub | LostFilm, NewStudio, BaiBaKo

0 | 1

22.66 ГБ

В этой теме нет новых непрочитанных сообщений. Люди будущего / The Tomorrow People [01х01-18 из 22] (2013) WEB-DLRip-AVC от MediaClub | LostFilm, NewStudio, BaiBaKo

3 | 18

19.43 ГБ

В этой теме нет новых непрочитанных сообщений. Люди будущего / The Tomorrow People [01х01-17 из 22] (2013) WEB-DLRip-AVC от MediaClub | LostFilm, NewStudio, BaiBaKo

19 | 44

18.35 ГБ

В этой теме нет новых непрочитанных сообщений. Люди будущего / The Tomorrow People [01х01-14] (2013) WEB-DLRip-AVC от MediaClub | LostFilm, NewStudio, BaiBaKo

12 | 56

15.11 ГБ

В этой теме нет новых непрочитанных сообщений. Люди будущего / The Tomorrow People [01х01-11] (2013-2014) WEB-DL 720p | NewStudio, BaibaKo

0 | 1

16.98 ГБ

В этой теме нет новых непрочитанных сообщений. Люди будущего / The Tomorrow People [01х01-19] (2013) WEB-DLRip | NewStudio

9 | 82

10.11 ГБ

В этой теме нет новых непрочитанных сообщений. Люди будущего / The Tomorrow People [01х01-15] (2013) WEB-DLRip | NewStudio

81 | 217

7.96 ГБ




Вы не можете начинать темы
Вы не можете отвечать на сообщения
Вы не можете редактировать свои сообщения
Вы не можете удалять свои сообщения
Вы не можете добавлять вложения

Перейти:  
Для Мосгорсуда, Роскомнадзора и рекламодателей: mosgorsud-torrent[собачка]yandex.ru
 Вход
ppkBB3cker v.2 © 2008-2014 @ PPK
[ Time : 0.042s | 15 Queries | GZIP : Off ]

Торрент трекер RUTOR.IN, Не можете зайти на rutor.org? Какой новый адрес рутор? Какое зеркало рутор? Не работает rutor.org и зеркала? Тогда наш торрент специально для вас. Rutor.in неофициальное зеркало rutor. В случае если у Вас заблокирован rutor или вдруг Вы не можете на него зайти, то Вы без труда сможете скачать бесплатно и без рекламы последние новинки кино, игр, сериалов и прочего у нас, на Rutor.in. Не нужно использовать прокси, чтобы зайти на рутор, достаточно воспользоваться нашим ресурсом. Все новые фильмы, игры, сериалы, книги и музыка за 2013 и 2014 годы через торрент бесплатно. Скачивайте фильмы в хорошем качестве, игры для пк, xbox, playstation без регистрации. У нас вы найдете новые Зарубежные сериалы и Русские сериалы 2013, 2014, 2015 годов. Оставайтесь с нами, качайте любимые фильмы, игры, сериалы, книги и музыку.