img image001 image001 image001 image001 image001 image001 image001 image001 image001 image001 image001 image001 image001 image001 image001

Planets Sun Sun Sun
Статистика раздачи
Автор: Nickolas3434 | Размер: 1.81 ГБ | Добавлен: 12 мар 2014
Раздают: 1956    Качают: 1094
Скачать торрент
Скачать торрент
Описание торрента

СообщениеДобавлено: 12 мар 2014 


Страна: Россия
Производство: Мосфильм
Жанр: Детектив
Год выпуска: 2013

Продолжительность: 4 x 00:45:00
Язык: Русский

Режиссер: Анна Легчилова
В ролях: Светлана Антонова, Дмитрий Ульянов, Александр Устюгов, Юрий Ваксман, Сергей Чирков, Мария Звонарева, Евгений Мундум, Александр Никулин, Василий Бриченко, Юлия Ромашина
Описание: Небольшой провинциальный городок потрясает серия жестоких убийств. Рядом с некоторыми убитыми женщинами находят странные бусинки и стихи французского поэта Шарля Бодлера из знаменитого сборника "Цветы зла". Но, не смотря ни на что, полиции так и не удается выйти на след преступника. К расследованию подключается опытный психолог Ирина Елисеева. Ей предстоит составить психологический портрет преступника и разгадать его зловещий план. Но удастся ли ей остановить лавину убийств?...



Исходник: DVD9 R5

Тип релиза: DVDRip

Контейнер: AVI
Видео: XviD, ~ 983 Кбит/с, 720х400
Аудио: AC3, 2 ch, 448 Кбит/с
Общее
Полное имя : D:1АААЦВЕТЫ ЗЛА1 серия.avi
Формат : AVI
Формат/Информация : Audio Video Interleave
Размер файла : 463 Мбайт
Продолжительность : 45 м.
Общий поток : 1437 Кбит/сек
Программа кодирования : VirtualDubMod 1.5.10.3 | www.virtualdub-fr.org || (build 2550/release)
Библиотека кодирования : VirtualDubMod build 2550/release

Видео
Идентификатор : 0
Формат : MPEG-4 Visual
Профиль формата : Advanced Simple@L5
Параметр BVOP формата : 2
Параметр QPel формата : Нет
Параметр GMC формата : Без точки перехода
Параметр матрицы формата : Default (MPEG)
Режим смешивания : Сжатый битовый поток
Идентификатор кодека : XVID
Идентификатор кодека/Подсказка : XviD
Продолжительность : 45 м.
Битрейт : 979 Кбит/сек
Ширина : 720 пикселей
Высота : 400 пикселей
Соотношение сторон : 16:9
Частота кадров : 23,976 кадра/сек
Цветовое пространство : YUV
Субдискретизация насыщенности : 4:2:0
Битовая глубина : 8 бит
Тип развёртки : Прогрессивная
Метод сжатия : С потерями
Бит/(Пиксели*Кадры) : 0.142
Размер потока : 315 Мбайт (68%)
Библиотека кодирования : XviD 1.2.1 (UTC 2008-12-04)

Аудио
Идентификатор : 1
Формат : AC-3
Формат/Информация : Audio Coding 3
Расширение режима : CM (complete main)
Параметр Endianness формата : Big
Идентификатор кодека : 2000
Продолжительность : 45 м.
Вид битрейта : Постоянный
Битрейт : 448 Кбит/сек
Каналы : 2 канала
Расположение каналов : Front: L R
Частота : 48,0 КГц
Битовая глубина : 16 бит
Метод сжатия : С потерями
Размер потока : 144 Мбайт (31%)
Выравнивание : Разделение по промежуткам
Продолжительность промежутка : 42 мс. (1,00 видеокадр)
Время предзагрузки промежутка : 500 мс.





Релиз группа:

Автор рипа:



   Похожие торренты   Торрент   Размер 
В этой теме нет новых непрочитанных сообщений. Цветы в крови / Кровавые цветы / Fleurs de sang / Flowers of Blood (2002) DVDRip | Sub

50 | 39

1.02 ГБ

В этой теме нет новых непрочитанных сообщений. Не присылай мне цветы / Send Me No Flowers (1964) HDTVRip от NovaLan

6 | 3

1.45 ГБ

В этой теме нет новых непрочитанных сообщений. Цветы зла [01-04 из 04] (2013) DVDRip-AVC от MediaClub

280 | 126

2.91 ГБ

В этой теме нет новых непрочитанных сообщений. Стас Намин и группа «Цветы» «Крокус-Сити-Холл» (2013) DVDRip-AVC

245 | 66

3.41 ГБ

В этой теме нет новых непрочитанных сообщений. Цветы зла [01-04 из 04] (2013) HDTVRip-AVC

206 | 172

3.95 ГБ

В этой теме нет новых непрочитанных сообщений. Цветы зла [01-04 из 04] (2013) HDTVRip

70 | 4

2.14 ГБ

В этой теме нет новых непрочитанных сообщений. Цветы зла [01-04 из 04] (2013) HDTV 1080i

17 | 2

9.46 ГБ




Вы не можете начинать темы
Вы не можете отвечать на сообщения
Вы не можете редактировать свои сообщения
Вы не можете удалять свои сообщения
Вы не можете добавлять вложения

Перейти:  
Для Мосгорсуда, Роскомнадзора и рекламодателей: mosgorsud-torrent[собачка]yandex.ru
 Вход
ppkBB3cker v.2 © 2008-2014 @ PPK
[ Time : 0.027s | 17 Queries | GZIP : On ]

Торрент трекер RUTOR.IN, Не можете зайти на rutor.org? Какой новый адрес рутор? Какое зеркало рутор? Не работает rutor.org и зеркала? Тогда наш торрент специально для вас. Rutor.in неофициальное зеркало rutor. В случае если у Вас заблокирован rutor или вдруг Вы не можете на него зайти, то Вы без труда сможете скачать бесплатно и без рекламы последние новинки кино, игр, сериалов и прочего у нас, на Rutor.in. Не нужно использовать прокси, чтобы зайти на рутор, достаточно воспользоваться нашим ресурсом. Все новые фильмы, игры, сериалы, книги и музыка за 2013 и 2014 годы через торрент бесплатно. Скачивайте фильмы в хорошем качестве, игры для пк, xbox, playstation без регистрации. У нас вы найдете новые Зарубежные сериалы и Русские сериалы 2013, 2014, 2015 годов. Оставайтесь с нами, качайте любимые фильмы, игры, сериалы, книги и музыку.