img image001 image001 image001 image001 image001 image001 image001 image001 image001 image001 image001 image001 image001 image001 image001

Planets Sun Sun Sun
Статистика раздачи
Автор: Nickolas3434 | Размер: 8.15 ГБ | Добавлен: 12 мар 2014
Раздают: 630    Качают: 387
Скачать торрент
Скачать торрент
Описание торрента

СообщениеДобавлено: 12 мар 2014 


Страна: Россия / Горад, Марс Медиа Энтертейнмент, Пантократор
Жанр: военный, драма
Год выпуска: 2013
Продолжительность: 12 x ~00:45:00

Перевод: не требуется
Cубтитры: нет
Оригинальная аудиодорожка: русский

Режиссер: Евгений Лаврентьев

В ролях: Павел Деревянко, Марина Коняшкина, Ольга Ломоносова, Евгений Сидихин, Тимофей Трибунцев, Александр Гузов, Олег Карпенко, Семен Трескунов, Павел Трубинер, Вадим Норштейн...

Описание: 1947 год. Ростов-на-Дону. В стране, обескровленной войной, царят голод и разруха. Хлеб — в буквальном смысле на вес золота, а стоимость человеческой жизни равняется нулю. Растет число преступлений, появляются бандитские группировки, которые контролируют целые города. Подобно черным кошкам, они появляются незамеченными под покровом ночи и легко уходят с места преступления. Банда, действующая в Ростове, грабит продовольственный склад, оставляя кровавые следы.
Сотрудник уголовного розыска майор Егор Драгун подозревает, что в ней действуют не обычные уголовники. Его подозрения оправдываются: под бандитов, запутывая следы, маскируются бывшие сотрудники вермахта. Их истинная цель — захват известного немецкого ученого, который находится в лагере для военнопленных на территории Ростова-на-Дону. В Германии ученый работал над созданием атомной бомбы. Если вывезти его в Аргентину, куда после войны переместились фашистские группировки, и дать закончить работу, может начаться ядерная война.
Цель Драгуна и его подручных — найти и обезвредить преступников. Помощь приходит, откуда не ждали — со стороны настоящих уголовников. Объединившись ради общей цели, они не дадут развязать новую войну.



Качество: DVDRip (3 x DVD9 R5)
Формат: AVI

Видео: 720x400 (16:9), 25.000 fps, XViD ~ 1700 kbps avg, 0.236 bit/pixel
Аудио: 48 kHz, АС3 6 ch, 448 kbps, русский

Раздача от:
Общее
Полное имя : Chernye.koshki.2013.O.DVDRip_[New-Team]_by_avproh1.avi
Формат : AVI
Формат/Информация : Audio Video Interleave
Размер файла : 761 Мбайт
Продолжительность : 49 м.
Общий поток : 2157 Кбит/сек
Программа кодирования : VirtualDubMod 1.5.10.3 | www.virtualdub-fr.org || (build 2550/release)
Библиотека кодирования : VirtualDubMod build 2550/release

Видео
Идентификатор : 0
Формат : MPEG-4 Visual
Профиль формата : Advanced Simple@L5
Параметр BVOP формата : 1
Параметр QPel формата : Нет
Параметр GMC формата : Без точки перехода
Параметр матрицы формата : Выборочная
Идентификатор кодека : XVID
Идентификатор кодека/Подсказка : XviD
Продолжительность : 49 м.
Битрейт : 1699 Кбит/сек
Ширина : 720 пикселей
Высота : 400 пикселей
Соотношение сторон : 16:9
Частота кадров : 25,000 кадров/сек
Цветовое пространство : YUV
Субдискретизация насыщенности : 4:2:0
Битовая глубина : 8 бит
Тип развёртки : Прогрессивная
Метод сжатия : С потерями
Бит/(Пиксели*Кадры) : 0.236
Размер потока : 600 Мбайт (79%)
Библиотека кодирования : XviD 73

Аудио
Идентификатор : 1
Формат : AC-3
Формат/Информация : Audio Coding 3
Расширение режима : CM (complete main)
Параметр Endianness формата : Big
Идентификатор кодека : 2000
Продолжительность : 49 м.
Вид битрейта : Постоянный
Битрейт : 448 Кбит/сек
Каналы : 6 каналов
Расположение каналов : Front: L C R, Side: L R, LFE
Частота : 48,0 КГц
Битовая глубина : 16 бит
Метод сжатия : С потерями
Размер потока : 158 Мбайт (21%)
Выравнивание : Разделение по промежуткам
Продолжительность промежутка : 40 мс. (1,00 видеокадр)
Время предзагрузки промежутка : 500 мс.








   Похожие торренты   Торрент   Размер 
В этой теме нет новых непрочитанных сообщений. Черные кошки [01-12 из 12] (2013) DVDRip-AVC от New-Team | лицензия

596 | 296

8.15 ГБ

В этой теме нет новых непрочитанных сообщений. Черные кошки [01-12 из 12] (2013) 3xDVD9 R5 от New-Team | лицензия

28 | 74

16.11 ГБ

В этой теме нет новых непрочитанных сообщений. Черные кошки [01-12 из 12] (2013) WEB-DLRip

14 | 4

7.73 ГБ

В этой теме нет новых непрочитанных сообщений. Черные кошки [01-12 из 12] (2013) WEB-DLRip от Generalfilm

33 | 11

7.55 ГБ

В этой теме нет новых непрочитанных сообщений. Черные кошки [01-12 из 12] (2013) WEB-DLRip | iPhone

2 | 5

2.91 ГБ

В этой теме нет новых непрочитанных сообщений. Черные кошки [01-12 из 12] (2013) WEB-DL 720p от Nikolspup

113 | 35

7.48 ГБ

В этой теме нет новых непрочитанных сообщений. Черные кошки [01-12 из 12] (2013) SATRip от GeneralFilm

1220 | 386

6.66 ГБ




Вы не можете начинать темы
Вы не можете отвечать на сообщения
Вы не можете редактировать свои сообщения
Вы не можете удалять свои сообщения
Вы не можете добавлять вложения

Перейти:  
Для Мосгорсуда, Роскомнадзора и рекламодателей: mosgorsud-torrent[собачка]yandex.ru
 Вход
ppkBB3cker v.2 © 2008-2014 @ PPK
[ Time : 0.049s | 17 Queries | GZIP : Off ]
CGP output time : 0.046s | 5 Queries | GZIP : Off

Торрент трекер RUTOR.IN, Не можете зайти на rutor.org? Какой новый адрес рутор? Какое зеркало рутор? Не работает rutor.org и зеркала? Тогда наш торрент специально для вас. Rutor.in неофициальное зеркало rutor. В случае если у Вас заблокирован rutor или вдруг Вы не можете на него зайти, то Вы без труда сможете скачать бесплатно и без рекламы последние новинки кино, игр, сериалов и прочего у нас, на Rutor.in. Не нужно использовать прокси, чтобы зайти на рутор, достаточно воспользоваться нашим ресурсом. Все новые фильмы, игры, сериалы, книги и музыка за 2013 и 2014 годы через торрент бесплатно. Скачивайте фильмы в хорошем качестве, игры для пк, xbox, playstation без регистрации. У нас вы найдете новые Зарубежные сериалы и Русские сериалы 2013, 2014, 2015 годов. Оставайтесь с нами, качайте любимые фильмы, игры, сериалы, книги и музыку.