img image001 image001 image001 image001 image001 image001 image001 image001 image001 image001 image001 image001 image001 image001 image001

Planets Sun Sun Sun
Статистика раздачи
Автор: Nickolas3434 | Размер: 2.91 ГБ | Добавлен: 13 мар 2014
Раздают: 280    Качают: 126
Скачать торрент
Скачать торрент
Описание торрента

СообщениеДобавлено: 13 мар 2014 

Информация о фильме
Оригинальное название: Цветы зла
Год выпуска: 2013
Жанр: Детектив
Режиссер: Анна Легчилова
В ролях: Светлана Антонова, Дмитрий Ульянов, Александр Устюгов, Юрий Ваксман, Сергей Чирков, Мария Звонарёва, Евгений Мундум, Александр Никулин, Василий Бриченко, Юлия Ромашина

Описание: Небольшой провинциальный городок потрясает серия жестоких убийств. Рядом с некоторыми убитыми женщинами находят странные бусинки и стихи французского поэта Шарля Бодлера из знаменитого сборника "Цветы зла". Но, не смотря ни на что, полиции так и не удается выйти на след преступника. К расследованию подключается опытный психолог Ирина Елисеева. Ей предстоит составить психологический портрет преступника и разгадать его зловещий план. Но удастся ли ей остановить лавину убийств?...

Страна: Россия
Студия: Мосфильм
Продолжительность: 4 х ~ 00:45:00

Файл
Качество: DVDRip (AVC)
Видео: MPEG-4 AVC, ~ 2100 Кбит/с, 720x576@1024x576, 25.000 кадр/с
Аудио: Русский (AC3, 2 ch, 192 Кбит/с)



Общее
Уникальный идентификатор : 205541259331116641756037393213670183730 (0x9AA1CE7E56E1C773B2DFA2486FC25332)
Полное имя : D:Mои раздачиCvety.zla.2013.DVDRip.(AVC)-MediaClub\01.mkv
Формат : Matroska
Версия формата : Version 2
Размер файла : 746 Мбайт
Продолжительность : 45 м.
Общий поток : 2317 Кбит/сек
Дата кодирования : UTC 2014-03-12 09:00:50
Программа кодирования : mkvmerge v6.1.0 ('Old Devil') built on Mar 4 2013 09:10:42
Библиотека кодирования : libebml v1.3.0 + libmatroska v1.4.0

Видео
Идентификатор : 1
Формат : AVC
Формат/Информация : Advanced Video Codec
Профиль формата : High@L4.1
Параметр CABAC формата : Да
Параметр ReFrames формата : 10 кадров
Идентификатор кодека : V_MPEG4/ISO/AVC
Продолжительность : 45 м.
Битрейт : 2127 Кбит/сек
Ширина : 720 пикселей
Высота : 576 пикселей
Соотношение сторон : 16:9
Режим частоты кадров : Постоянный
Частота кадров : 25,000 кадров/сек
Стандарт вещания : PAL
Цветовое пространство : YUV
Субдискретизация насыщенности : 4:2:0
Битовая глубина : 8 бит
Тип развёртки : Прогрессивная
Бит/(Пиксели*Кадры) : 0.205
Размер потока : 669 Мбайт (90%)
Библиотека кодирования : x264 core 142 r2389+41 02cb608 tMod [8-bit@4:2:0 X86_64]
Настройки программы : cabac=1 / ref=10 / deblock=1:-3:-3 / analyse=0x3:0x113 / me=umh / subme=11 / psy=1 / fade_compensate=0.00 / psy_rd=1.00:0.20 / mixed_ref=1 / me_range=32 / chroma_me=1 / trellis=2 / 8x8dct=1 / cqm=0 / deadzone=21,11 / fast_pskip=0 / chroma_qp_offset=-3 / threads=12 / lookahead_threads=3 / sliced_threads=0 / nr=0 / decimate=0 / interlaced=0 / bluray_compat=0 / constrained_intra=0 / fgo=0 / bframes=12 / b_pyramid=2 / b_adapt=2 / b_bias=0 / direct=3 / weightb=1 / open_gop=0 / weightp=2 / keyint=250 / keyint_min=25 / scenecut=40 / intra_refresh=0 / rc=2pass / mbtree=0 / bitrate=2127 / ratetol=1.0 / qcomp=0.60 / qpmin=0:0:0 / qpmax=69:69:69 / qpstep=4 / cplxblur=20.0 / qblur=0.5 / ip_ratio=1.40 / pb_ratio=1.30 / aq=2:0.80 / aq-sensitivity=10.00 / aq-factor=1.00:1.00:1.00 / aq2=0 / aq3=0
Default : Да
Forced : Нет

Аудио
Идентификатор : 2
Формат : AC-3
Формат/Информация : Audio Coding 3
Расширение режима : CM (complete main)
Параметр Endianness формата : Big
Идентификатор кодека : A_AC3
Продолжительность : 45 м.
Вид битрейта : Постоянный
Битрейт : 192 Кбит/сек
Каналы : 2 канала
Расположение каналов : Front: L R
Частота : 48,0 КГц
Битовая глубина : 16 бит
Метод сжатия : С потерями
Размер потока : 61,8 Мбайт (8%)
Default : Да
Forced : Нет

Релиз: |



   Похожие торренты   Торрент   Размер 
В этой теме нет новых непрочитанных сообщений. Цветы в крови / Кровавые цветы / Fleurs de sang / Flowers of Blood (2002) DVDRip | Sub

50 | 39

1.02 ГБ

В этой теме нет новых непрочитанных сообщений. Цветы зла [01-04 из 4] (2013) DVDRip от NovaLan

1956 | 1094

1.81 ГБ

В этой теме нет новых непрочитанных сообщений. Поздние цветы [01 из 02] (2014) HDTVRip 720p от MediaClub

58 | 19

7.39 ГБ

В этой теме нет новых непрочитанных сообщений. Поздние цветы [01-02 из 02] (2014) HDTV 1080i от MediaClub

24 | 22

10.09 ГБ

В этой теме нет новых непрочитанных сообщений. Стас Намин и группа «Цветы» «Крокус-Сити-Холл» (2013) DVDRip-AVC

245 | 66

3.41 ГБ

В этой теме нет новых непрочитанных сообщений. Группа Стаса Намина "Цветы" - Коллекция (1984-2011) MP3 от MediaClub

80 | 21

2.19 ГБ

В этой теме нет новых непрочитанных сообщений. Цветы зла [01-04 из 04] (2013) HDTVRip

70 | 4

2.14 ГБ




Вы не можете начинать темы
Вы не можете отвечать на сообщения
Вы не можете редактировать свои сообщения
Вы не можете удалять свои сообщения
Вы не можете добавлять вложения

Перейти:  
Для Мосгорсуда, Роскомнадзора и рекламодателей: mosgorsud-torrent[собачка]yandex.ru
 Вход
ppkBB3cker v.2 © 2008-2014 @ PPK
[ Time : 0.067s | 16 Queries | GZIP : Off ]

Торрент трекер RUTOR.IN, Не можете зайти на rutor.org? Какой новый адрес рутор? Какое зеркало рутор? Не работает rutor.org и зеркала? Тогда наш торрент специально для вас. Rutor.in неофициальное зеркало rutor. В случае если у Вас заблокирован rutor или вдруг Вы не можете на него зайти, то Вы без труда сможете скачать бесплатно и без рекламы последние новинки кино, игр, сериалов и прочего у нас, на Rutor.in. Не нужно использовать прокси, чтобы зайти на рутор, достаточно воспользоваться нашим ресурсом. Все новые фильмы, игры, сериалы, книги и музыка за 2013 и 2014 годы через торрент бесплатно. Скачивайте фильмы в хорошем качестве, игры для пк, xbox, playstation без регистрации. У нас вы найдете новые Зарубежные сериалы и Русские сериалы 2013, 2014, 2015 годов. Оставайтесь с нами, качайте любимые фильмы, игры, сериалы, книги и музыку.