img image001 image001 image001 image001 image001 image001 image001 image001 image001 image001 image001 image001 image001 image001 image001

Planets Sun Sun Sun
Статистика раздачи
Автор: Nickolas3434 | Размер: 14.81 ГБ | Добавлен: 14 мар 2014
Раздают: 66    Качают: 61
Скачать торрент
Скачать торрент
Описание торрента

СообщениеДобавлено: 14 мар 2014 

Информация о фильме

Название: Шерлок
Оригинальное название: Sherlock
Год выпуска: 2014
Жанр: Драма, триллер, криминал, детектив
Выпущено: Великобритания, Hartswood Films, BBC Wales, Masterpiece Theatre
Режиссер: Пол МакГиган
В ролях: Бенедикт Камбербэтч, Мартин Фриман, Уна Стаббс, Эндрю Скотт, Лара Пулвер, Лу Брили, Руперт Грейвз, Марк Гатисс, Винетт Робинсон, Джонатан Арис
О фильме: В третьем сезоне, главному герою предстоит столкнуться с коварным злодеем Чарльзом Огастесом Магнуссеном. Его прототипом стал преступник, образ которого был создан самим Артуром Конан Дойлем в одном из рассказов («Конец Чарльза Огастеса Милвертона»).


Файл

Качество: ВDRip (720p)
Видео: MPEG-4 AVC, ~ 4450 Кбит/с, 1280x720, 25 кадр/с
Аудио: Русский (AC3, 2 ch, 640 Кбит/с), (DTS, 2 ch, 1509 Кбит/с), английский (DTS, 6 ch, 1509 Кбит/с)
Размер: 14.81 ГБ
Продолжительность: 3 x ~ 01:29:00
Перевод: Дублированный
Аудио #1: Русский, AC3, 2 ch, 640 Кбит/с - Лицензия
Аудио #2: Русский, DTS, 2 ch, 1509 Кбит/с - Лицензия
Аудио #3: Английский, DTS, 6 ch, 1509 Кбит/с
Сохранены оригинальные чаптеры как на Blu-Ray
Исходник - Sherlock.S03.2014.BDRemux.(1080i).ExKinoRay
01. Пустой Катафалк / The Empty Hearse
02. Знак трех / The Sign of Three
03. Последняя клятва / His Last Vow


Общее
Уникальный идентификатор : 246136264086360426999979523755632281532 (0xB92C1EC184A567999BEFECE38500C7BC)
Полное имя : D:ЗагрузкиSherlock.RU.s03.2014.BDRip.(720p).ExKinoRaySherlock.RU.S03E01.The.Empty.Hearse.BDRip.(720p).ExKinoRay.mkv
Формат : Matroska
Версия формата : Version 2
Размер файла : 4,93 Гбайт
Продолжительность : 1 ч. 26 м.
Общий поток : 8162 Кбит/сек
Название фильма : Шерлок.3 сезон.1-я серия.(Пустой Катафалк).2014. Rip by: ollan
Дата кодирования : UTC 2014-03-13 15:56:54
Программа кодирования : mkvmerge v5.6.0 ('Kenya Kane') built on May 27 2012 16:44:04
Библиотека кодирования : libebml v1.2.3 + libmatroska v1.3.0

Видео
Идентификатор : 1
Формат : AVC
Формат/Информация : Advanced Video Codec
Профиль формата : High@L4.1
Параметр CABAC формата : Да
Параметр ReFrames формата : 4 кадра
Идентификатор кодека : V_MPEG4/ISO/AVC
Продолжительность : 1 ч. 26 м.
Битрейт : 4500 Кбит/сек
Ширина : 1280 пикселей
Высота : 720 пикселей
Соотношение сторон : 16:9
Режим частоты кадров : Постоянный
Частота кадров : 25,000 кадров/сек
Цветовое пространство : YUV
Субдискретизация насыщенности : 4:2:0
Битовая глубина : 8 бит
Тип развёртки : Прогрессивная
Бит/(Пиксели*Кадры) : 0.195
Размер потока : 2,62 Гбайт (53%)
Библиотека кодирования : x264 core 125 r2200 999b753
Настройки программы : cabac=1 / ref=4 / deblock=1:-3:-3 / analyse=0x3:0x133 / me=umh / subme=11 / psy=1 / psy_rd=1.00:0.10 / mixed_ref=1 / me_range=32 / chroma_me=1 / trellis=2 / 8x8dct=1 / cqm=0 / deadzone=21,11 / fast_pskip=0 / chroma_qp_offset=-3 / threads=12 / lookahead_threads=2 / sliced_threads=0 / nr=0 / decimate=0 / interlaced=0 / bluray_compat=0 / constrained_intra=0 / bframes=9 / b_pyramid=2 / b_adapt=2 / b_bias=0 / direct=3 / weightb=1 / open_gop=0 / weightp=2 / keyint=250 / keyint_min=25 / scenecut=40 / intra_refresh=0 / rc_lookahead=40 / rc=2pass / mbtree=1 / bitrate=4500 / ratetol=1.0 / qcomp=0.60 / qpmin=0 / qpmax=69 / qpstep=4 / cplxblur=20.0 / qblur=0.5 / ip_ratio=1.40 / aq=1:1.00
Default : Да
Forced : Нет

Аудио #1
Идентификатор : 2
Формат : AC-3
Формат/Информация : Audio Coding 3
Расширение режима : CM (complete main)
Параметр Endianness формата : Big
Идентификатор кодека : A_AC3
Продолжительность : 1 ч. 26 м.
Вид битрейта : Постоянный
Битрейт : 640 Кбит/сек
Каналы : 2 канала
Расположение каналов : Front: L R
Частота : 48,0 КГц
Битовая глубина : 16 бит
Метод сжатия : С потерями
Размер потока : 396 Мбайт (8%)
Заголовок : Дублированный (Лицензия)
Язык : Russian
Default : Да
Forced : Нет

Аудио #2
Идентификатор : 3
Формат : DTS
Формат/Информация : Digital Theater Systems
Режим : 16
Параметр Endianness формата : Big
Идентификатор кодека : A_DTS
Продолжительность : 1 ч. 26 м.
Вид битрейта : Постоянный
Битрейт : 1509 Кбит/сек
Каналы : 2 канала
Расположение каналов : Front: L R
Частота : 48,0 КГц
Битовая глубина : 16 бит
Метод сжатия : С потерями
Размер потока : 934 Мбайт (18%)
Заголовок : Дублированный (Лицензия)
Язык : Russian
Default : Нет
Forced : Нет

Аудио #3
Идентификатор : 4
Формат : DTS
Формат/Информация : Digital Theater Systems
Режим : 16
Параметр Endianness формата : Big
Идентификатор кодека : A_DTS
Продолжительность : 1 ч. 26 м.
Вид битрейта : Постоянный
Битрейт : 1509 Кбит/сек
Каналы : 2 канала
Расположение каналов : Front: L R
Частота : 48,0 КГц
Битовая глубина : 16 бит
Метод сжатия : С потерями
Размер потока : 934 Мбайт (18%)
Язык : English
Default : Нет
Forced : Нет

Меню
00:00:00.000 : :Chapter 01
00:08:35.360 : :Chapter 02
00:18:52.080 : :Chapter 03
00:30:17.560 : :Chapter 04
00:40:33.080 : :Chapter 05
00:50:04.040 : :Chapter 06
01:02:05.120 : :Chapter 07
01:11:59.760 : :Chapter 08

Общее
Уникальный идентификатор : 218229534384386375975369110201024790005 (0xA42D7AC0A596BCDABC3A3EB5934A3DF5)
Полное имя : D:ЗагрузкиSherlock.RU.s03.2014.BDRip.(720p).ExKinoRaySherlock.RU.S03E02.The.Sign.of.Three.BDRip.(720p).ExKinoRay.mkv
Формат : Matroska
Версия формата : Version 2
Размер файла : 4,85 Гбайт
Продолжительность : 1 ч. 26 м.
Общий поток : 8062 Кбит/сек
Название фильма : Шерлок.3 сезон.2-я серия.(Знак Трёх).2014. Rip by: ollan
Дата кодирования : UTC 2014-03-13 16:00:13
Программа кодирования : mkvmerge v5.6.0 ('Kenya Kane') built on May 27 2012 16:44:04
Библиотека кодирования : libebml v1.2.3 + libmatroska v1.3.0

Видео
Идентификатор : 1
Формат : AVC
Формат/Информация : Advanced Video Codec
Профиль формата : High@L4.1
Параметр CABAC формата : Да
Параметр ReFrames формата : 4 кадра
Идентификатор кодека : V_MPEG4/ISO/AVC
Продолжительность : 1 ч. 26 м.
Битрейт : 4400 Кбит/сек
Ширина : 1280 пикселей
Высота : 720 пикселей
Соотношение сторон : 16:9
Режим частоты кадров : Постоянный
Частота кадров : 25,000 кадров/сек
Цветовое пространство : YUV
Субдискретизация насыщенности : 4:2:0
Битовая глубина : 8 бит
Тип развёртки : Прогрессивная
Бит/(Пиксели*Кадры) : 0.191
Размер потока : 2,55 Гбайт (53%)
Библиотека кодирования : x264 core 125 r2200 999b753
Настройки программы : cabac=1 / ref=4 / deblock=1:-3:-3 / analyse=0x3:0x133 / me=umh / subme=11 / psy=1 / psy_rd=1.00:0.10 / mixed_ref=1 / me_range=32 / chroma_me=1 / trellis=2 / 8x8dct=1 / cqm=0 / deadzone=21,11 / fast_pskip=0 / chroma_qp_offset=-3 / threads=12 / lookahead_threads=2 / sliced_threads=0 / nr=0 / decimate=0 / interlaced=0 / bluray_compat=0 / constrained_intra=0 / bframes=9 / b_pyramid=2 / b_adapt=2 / b_bias=0 / direct=3 / weightb=1 / open_gop=0 / weightp=2 / keyint=250 / keyint_min=25 / scenecut=40 / intra_refresh=0 / rc_lookahead=40 / rc=2pass / mbtree=1 / bitrate=4400 / ratetol=1.0 / qcomp=0.60 / qpmin=0 / qpmax=69 / qpstep=4 / cplxblur=20.0 / qblur=0.5 / ip_ratio=1.40 / aq=1:1.00
Default : Да
Forced : Нет

Аудио #1
Идентификатор : 2
Формат : AC-3
Формат/Информация : Audio Coding 3
Расширение режима : CM (complete main)
Параметр Endianness формата : Big
Идентификатор кодека : A_AC3
Продолжительность : 1 ч. 26 м.
Вид битрейта : Постоянный
Битрейт : 640 Кбит/сек
Каналы : 2 канала
Расположение каналов : Front: L R
Частота : 48,0 КГц
Битовая глубина : 16 бит
Метод сжатия : С потерями
Размер потока : 394 Мбайт (8%)
Заголовок : Дублированный (Лицензия)
Язык : Russian
Default : Да
Forced : Нет

Аудио #2
Идентификатор : 3
Формат : DTS
Формат/Информация : Digital Theater Systems
Режим : 16
Параметр Endianness формата : Big
Идентификатор кодека : A_DTS
Продолжительность : 1 ч. 26 м.
Вид битрейта : Постоянный
Битрейт : 1509 Кбит/сек
Каналы : 2 канала
Расположение каналов : Front: L R
Частота : 48,0 КГц
Битовая глубина : 16 бит
Метод сжатия : С потерями
Размер потока : 929 Мбайт (19%)
Заголовок : Дублированный (Лицензия)
Язык : Russian
Default : Нет
Forced : Нет

Аудио #3
Идентификатор : 4
Формат : DTS
Формат/Информация : Digital Theater Systems
Режим : 16
Параметр Endianness формата : Big
Идентификатор кодека : A_DTS
Продолжительность : 1 ч. 26 м.
Вид битрейта : Постоянный
Битрейт : 1509 Кбит/сек
Каналы : 2 канала
Расположение каналов : Front: L R
Частота : 48,0 КГц
Битовая глубина : 16 бит
Метод сжатия : С потерями
Размер потока : 929 Мбайт (19%)
Язык : English
Default : Нет
Forced : Нет

Меню
00:00:00.000 : :Chapter 01
00:09:16.440 : :Chapter 02
00:19:11.720 : :Chapter 03
00:29:01.960 : :Chapter 04
00:36:57.719 : :Chapter 05
00:49:03.080 : :Chapter 06
01:03:38.120 : :Chapter 07
01:11:36.560 : :Chapter 08

Общее
Уникальный идентификатор : 188992359986871600185142326769439219431 (0x8E2E9AC2DD96C482A679561B2BB81EE7)
Полное имя : D:ЗагрузкиSherlock.RU.s03.2014.BDRip.(720p).ExKinoRaySherlock.RU.S03E03.His.Last.Vow.BDRip.(720p).ExKinoRay.mkv
Формат : Matroska
Версия формата : Version 2
Размер файла : 5,03 Гбайт
Продолжительность : 1 ч. 29 м.
Общий поток : 8071 Кбит/сек
Название фильма : Шерлок.3 сезон.3-я серия.(Последняя Kлятва).2014. Rip by: ollan
Дата кодирования : UTC 2014-03-13 16:35:05
Программа кодирования : mkvmerge v5.6.0 ('Kenya Kane') built on May 27 2012 16:44:04
Библиотека кодирования : libebml v1.2.3 + libmatroska v1.3.0

Видео
Идентификатор : 1
Формат : AVC
Формат/Информация : Advanced Video Codec
Профиль формата : High@L4.1
Параметр CABAC формата : Да
Параметр ReFrames формата : 4 кадра
Идентификатор кодека : V_MPEG4/ISO/AVC
Продолжительность : 1 ч. 29 м.
Битрейт : 4410 Кбит/сек
Ширина : 1280 пикселей
Высота : 720 пикселей
Соотношение сторон : 16:9
Режим частоты кадров : Постоянный
Частота кадров : 25,000 кадров/сек
Цветовое пространство : YUV
Субдискретизация насыщенности : 4:2:0
Битовая глубина : 8 бит
Тип развёртки : Прогрессивная
Бит/(Пиксели*Кадры) : 0.191
Размер потока : 2,65 Гбайт (53%)
Библиотека кодирования : x264 core 125 r2200 999b753
Настройки программы : cabac=1 / ref=4 / deblock=1:-3:-3 / analyse=0x3:0x133 / me=umh / subme=11 / psy=1 / psy_rd=1.00:0.10 / mixed_ref=1 / me_range=32 / chroma_me=1 / trellis=2 / 8x8dct=1 / cqm=0 / deadzone=21,11 / fast_pskip=0 / chroma_qp_offset=-3 / threads=12 / lookahead_threads=2 / sliced_threads=0 / nr=0 / decimate=0 / interlaced=0 / bluray_compat=0 / constrained_intra=0 / bframes=9 / b_pyramid=2 / b_adapt=2 / b_bias=0 / direct=3 / weightb=1 / open_gop=0 / weightp=2 / keyint=250 / keyint_min=25 / scenecut=40 / intra_refresh=0 / rc_lookahead=40 / rc=2pass / mbtree=1 / bitrate=4410 / ratetol=1.0 / qcomp=0.60 / qpmin=0 / qpmax=69 / qpstep=4 / cplxblur=20.0 / qblur=0.5 / ip_ratio=1.40 / aq=1:1.00
Default : Да
Forced : Нет

Аудио #1
Идентификатор : 2
Формат : AC-3
Формат/Информация : Audio Coding 3
Расширение режима : CM (complete main)
Параметр Endianness формата : Big
Идентификатор кодека : A_AC3
Продолжительность : 1 ч. 29 м.
Вид битрейта : Постоянный
Битрейт : 640 Кбит/сек
Каналы : 2 канала
Расположение каналов : Front: L R
Частота : 48,0 КГц
Битовая глубина : 16 бит
Метод сжатия : С потерями
Размер потока : 408 Мбайт (8%)
Заголовок : Дублированный (Лицензия)
Язык : Russian
Default : Да
Forced : Нет

Аудио #2
Идентификатор : 3
Формат : DTS
Формат/Информация : Digital Theater Systems
Режим : 16
Параметр Endianness формата : Big
Идентификатор кодека : A_DTS
Продолжительность : 1 ч. 29 м.
Вид битрейта : Постоянный
Битрейт : 1509 Кбит/сек
Каналы : 2 канала
Расположение каналов : Front: L R
Частота : 48,0 КГц
Битовая глубина : 16 бит
Метод сжатия : С потерями
Размер потока : 963 Мбайт (19%)
Заголовок : Дублированный (Лицензия)
Язык : Russian
Default : Нет
Forced : Нет

Аудио #3
Идентификатор : 4
Формат : DTS
Формат/Информация : Digital Theater Systems
Режим : 16
Параметр Endianness формата : Big
Идентификатор кодека : A_DTS
Продолжительность : 1 ч. 29 м.
Вид битрейта : Постоянный
Битрейт : 1509 Кбит/сек
Каналы : 2 канала
Расположение каналов : Front: L R
Частота : 48,0 КГц
Битовая глубина : 16 бит
Метод сжатия : С потерями
Размер потока : 963 Мбайт (19%)
Язык : English
Default : Нет
Forced : Нет

Меню
00:00:00.000 : :Chapter 01
00:08:43.600 : :Chapter 02
00:19:38.280 : :Chapter 03
00:31:33.600 : :Chapter 04
00:41:30.920 : :Chapter 05
00:47:36.200 : :Chapter 06
00:58:30.760 : :Chapter 07
01:15:33.520 : :Chapter 08








Релиз от: Rip by:



   Похожие торренты   Торрент   Размер 
В этой теме нет новых непрочитанных сообщений. Шерлок / Sherlock [S03] (2014) BDRip 720p от ExKinoRay | D | Лицензия

1 | 25

16.38 ГБ

В этой теме нет новых непрочитанных сообщений. Шерлок / Sherlock [S03] (2014) BDRip-AVC от ExKinoRay | D | Лицензия

80 | 94

9.49 ГБ

В этой теме нет новых непрочитанных сообщений. Шерлок / Sherlock [S03] (2014) BDRip 1080p от ExKinoRay | D | Лицензия

150 | 38

18.58 ГБ

В этой теме нет новых непрочитанных сообщений. Шерлок / Sherlock [S03] (2014) BDRemux 1080i от ExKinoRay | D | Лицензия

35 | 24

54.68 ГБ

В этой теме нет новых непрочитанных сообщений. Шерлок Холмс: Полная коллекция / Sherlock Holmes: The Complete Collection 2011 (1939-1946) BDRip 720p от ExKinoRay

7 | 15

54.83 ГБ

В этой теме нет новых непрочитанных сообщений. Шерлок / Sherlock [S03] (2014) HDTVRip-AVC от ExKinoRay | Первый канал

245 | 40

5.04 ГБ

В этой теме нет новых непрочитанных сообщений. Шерлок / Sherlock [S03] (2014) HDRip-AVC от ExKinoRay | Первый канал

51 | 9

8.78 ГБ




Вы не можете начинать темы
Вы не можете отвечать на сообщения
Вы не можете редактировать свои сообщения
Вы не можете удалять свои сообщения
Вы не можете добавлять вложения

Перейти:  
Для Мосгорсуда, Роскомнадзора и рекламодателей: mosgorsud-torrent[собачка]yandex.ru
 Вход
ppkBB3cker v.2 © 2008-2014 @ PPK
[ Time : 0.028s | 16 Queries | GZIP : Off ]

Торрент трекер RUTOR.IN, Не можете зайти на rutor.org? Какой новый адрес рутор? Какое зеркало рутор? Не работает rutor.org и зеркала? Тогда наш торрент специально для вас. Rutor.in неофициальное зеркало rutor. В случае если у Вас заблокирован rutor или вдруг Вы не можете на него зайти, то Вы без труда сможете скачать бесплатно и без рекламы последние новинки кино, игр, сериалов и прочего у нас, на Rutor.in. Не нужно использовать прокси, чтобы зайти на рутор, достаточно воспользоваться нашим ресурсом. Все новые фильмы, игры, сериалы, книги и музыка за 2013 и 2014 годы через торрент бесплатно. Скачивайте фильмы в хорошем качестве, игры для пк, xbox, playstation без регистрации. У нас вы найдете новые Зарубежные сериалы и Русские сериалы 2013, 2014, 2015 годов. Оставайтесь с нами, качайте любимые фильмы, игры, сериалы, книги и музыку.