img image001 image001 image001 image001 image001 image001 image001 image001 image001 image001 image001 image001 image001 image001 image001

Planets Sun Sun Sun
Статистика раздачи
Автор: Nickolas3434 | Размер: 3.95 ГБ | Добавлен: 14 мар 2014
Раздают: 206    Качают: 172
Скачать торрент
Скачать торрент
Описание торрента

СообщениеДобавлено: 14 мар 2014 

Информация о фильме
Оригинальное название: Цветы зла
Год выпуска: 2013
Жанр: Драма, криминал
Режиссер: Анна Легчилова
В ролях: Светлана Антонова, Дмитрий Ульянов, Александр Устюгов, Мария Звонарёва, Дмитрий Исаев, Сергей Чирков, Юрий Ваксман, Анфиса Черных

О фильме:
Небольшой провинциальный городок потрясает серия жестоких убийств. Рядом с некоторыми убитыми женщинами находят странные бусинки и стихи французского поэта Шарля Бодлера из знаменитого сборника «Цветы зла». Но, не смотря ни на что, полиции так и не удается выйти на след преступника.

К расследованию подключается опытный психолог Ирина Елисеева. Ей предстоит составить психологический портрет преступника и разгадать его зловещий план. Но удастся ли ей остановить лавину убийств?



Выпущено: Россия, «Мосфильм», «12 А»
Продолжительность: 4 x ~ 00:45:00
Язык: Русский

Файл
Качество: HDTVRip-AVC
Видео: AVC, ~ 2966 Кбит/с, 1152x648, 25 кадр/с
Аудио: AC3, 2 ch, 224 Кбит/с



General
Unique ID : 195458934799019370383609299006179269487 (0x930C0583D34F23D9905FAA6F862C5B6F)
Complete name : F:СериалCvety Zla (2013) HDTVRip-AVCCvety.zla.04.(2013).HDTVRip-AVC.[-=DoMiNo=-].mkv
Format : Matroska
Format version : Version 4 / Version 2
File size : 1 019 MiB
Duration : 44mn 41s
Overall bit rate : 3 186 Kbps
Encoded date : UTC 2014-03-13 18:02:33
Writing application : mkvmerge v6.8.0 ('Theme for Great Cities') 64bit built on Mar 2 2014 21:34:26
Writing library : libebml v1.3.0 + libmatroska v1.4.1

Video
ID : 1
Format : AVC
Format/Info : Advanced Video Codec
Format profile : High@L4.1
Format settings, CABAC : Yes
Format settings, ReFrames : 9 frames
Codec ID : V_MPEG4/ISO/AVC
Duration : 44mn 41s
Bit rate : 2 966 Kbps
Width : 1 152 pixels
Height : 648 pixels
Display aspect ratio : 16:9
Frame rate mode : Constant
Frame rate : 25.000 fps
Color space : YUV
Chroma subsampling : 4:2:0
Bit depth : 8 bits
Scan type : Progressive
Bits/(Pixel*Frame) : 0.159
Stream size : 927 MiB (91%)
Writing library : x264 core 130 r2273 b3065e6
Encoding settings : cabac=1 / ref=9 / deblock=1:-3:-3 / analyse=0x3:0x133 / me=umh / subme=11 / psy=1 / psy_rd=1.00:0.10 / mixed_ref=1 / me_range=32 / chroma_me=1 / trellis=2 / 8x8dct=1 / cqm=0 / deadzone=21,11 / fast_pskip=0 / chroma_qp_offset=-6 / threads=6 / lookahead_threads=6 / sliced_threads=0 / slices=4 / nr=0 / decimate=0 / interlaced=0 / bluray_compat=0 / constrained_intra=0 / bframes=8 / b_pyramid=2 / b_adapt=2 / b_bias=0 / direct=3 / weightb=1 / open_gop=1 / weightp=2 / keyint=240 / keyint_min=23 / scenecut=40 / intra_refresh=0 / rc_lookahead=60 / rc=2pass / mbtree=1 / bitrate=2966 / ratetol=1.0 / qcomp=0.60 / qpmin=0 / qpmax=69 / qpstep=4 / cplxblur=20.0 / qblur=0.5 / ip_ratio=1.40 / aq=1:1.50
Default : Yes
Forced : No

Audio
ID : 2
Format : AC-3
Format/Info : Audio Coding 3
Mode extension : CM (complete main)
Format settings, Endianness : Big
Codec ID : A_AC3
Duration : 44mn 41s
Bit rate mode : Constant
Bit rate : 224 Kbps
Channel(s) : 2 channels
Channel positions : Front: L R
Sampling rate : 48.0 KHz
Bit depth : 16 bits
Compression mode : Lossy
Stream size : 71.6 MiB (7%)
Language : Russian
Default : Yes
Forced : No





   Похожие торренты   Торрент   Размер 
В этой теме нет новых непрочитанных сообщений. Цветы зла [01-04 из 04] (2013) HDTVRip

70 | 4

2.14 ГБ

В этой теме нет новых непрочитанных сообщений. Цветы зла [01-02 из 04] (2013) HDTVRip 720p

3 | 2

3.68 ГБ

В этой теме нет новых непрочитанных сообщений. Цветы и песни весны. Праздничный концерт (2013) HDTVRip

11 | 4

1.45 ГБ

В этой теме нет новых непрочитанных сообщений. Цветы в крови / Кровавые цветы / Fleurs de sang / Flowers of Blood (2002) DVDRip | Sub

50 | 39

1.02 ГБ

В этой теме нет новых непрочитанных сообщений. Цветы / Flowers [S01] (2016) HDTVRip от HamsterStudio | L2

5 | 0

1.19 ГБ

В этой теме нет новых непрочитанных сообщений. Поздние цветы [01-02 из 02] (2014) HDTVRip от Files-x

307 | 42

2.73 ГБ

В этой теме нет новых непрочитанных сообщений. Цветы зла [01-04 из 4] (2013) DVDRip от NovaLan

1956 | 1094

1.81 ГБ




Вы не можете начинать темы
Вы не можете отвечать на сообщения
Вы не можете редактировать свои сообщения
Вы не можете удалять свои сообщения
Вы не можете добавлять вложения

Перейти:  
Для Мосгорсуда, Роскомнадзора и рекламодателей: mosgorsud-torrent[собачка]yandex.ru
 Вход
ppkBB3cker v.2 © 2008-2014 @ PPK
[ Time : 0.085s | 16 Queries | GZIP : Off ]

Торрент трекер RUTOR.IN, Не можете зайти на rutor.org? Какой новый адрес рутор? Какое зеркало рутор? Не работает rutor.org и зеркала? Тогда наш торрент специально для вас. Rutor.in неофициальное зеркало rutor. В случае если у Вас заблокирован rutor или вдруг Вы не можете на него зайти, то Вы без труда сможете скачать бесплатно и без рекламы последние новинки кино, игр, сериалов и прочего у нас, на Rutor.in. Не нужно использовать прокси, чтобы зайти на рутор, достаточно воспользоваться нашим ресурсом. Все новые фильмы, игры, сериалы, книги и музыка за 2013 и 2014 годы через торрент бесплатно. Скачивайте фильмы в хорошем качестве, игры для пк, xbox, playstation без регистрации. У нас вы найдете новые Зарубежные сериалы и Русские сериалы 2013, 2014, 2015 годов. Оставайтесь с нами, качайте любимые фильмы, игры, сериалы, книги и музыку.
cron