img image001 image001 image001 image001 image001 image001 image001 image001 image001 image001 image001 image001 image001 image001 image001

Planets Sun Sun Sun
Статистика раздачи
Автор: Nickolas3434 | Размер: 28.16 ГБ | Добавлен: 14 мар 2014
Раздают: 35    Качают: 106
Скачать торрент
Скачать торрент
Описание торрента

СообщениеДобавлено: 14 мар 2014 

Информация о фильме
Название: Линч / Послание из гроба
Оригинальное название: Lynch
Год выхода: 2012-2013
Жанр: Драма, криминал, комедия
Выпущено: Колумбия / FoxTelecolombia, Moviecity
Режиссер: Фелипе Мартинез, Риккардо Габриелли Р., Джонатан Якубович
В ролях: Наталия Орейро, Хорхе Перугоррия, Алехандро Калва, Татан Рамирез, Марсела Карваял, Луис Фернандо Бохоркес, Жан Пол Леруа, Кристиан Мейер, Рауль Мендес, Хуан А. Баптиста, Херберт Кинг, Хуан Карлос Варгас, Карла Джиральдо, Дамиан Альказар, Сильвия Де Диос, Маргалида Кастро, Рафаэль Урибе, Мария Фернанда Йепес, Хесус Очоа, Рафаэль Бохоркес, Ноель Перез Бискаярт, Гонсало Виванко, Рикардо Риверо, Рафаэль Лаэра, Клаудия Морено

Сюжет этого мини-сериала рассказывает о похоронном бюро, владельцы которого семья «LYNCH» за большие деньги, фальсифицирует смерть людей, которые на самом деле живы, но которые, по какой-то причине добиваются того, чтобы все вокруг поверили, что они перестали существовать.
1 сезон

Есть люди, которым нужны деньги; люди, которым нужна любовь; люди, которым нужно признание... а есть люди, которым нужно УМЕРЕТЬ. Так что если у вас настоящие проблемы и единственное решение это покончить с жизнью, похоронное агентство "Послание из гроба" предлагает вам полный сервис воскрешения: Инсценирование случайной или естественной смерти, соответствующие вам похороны, видео вашего погребения и новая личность в другой стране, что позволит вам наслаждаться жизнью, как настоящий мертвец. Никто не будет вас искать, никто о вас не спросит, не будет больше обязательств... по крайней мере, не тех, что вы приобрели в этой жизни. Вы сможете начать все заново, так же, как это сделала Исабель, которая после 14 лет отсутствия, в один прекрасный день вернулась в похоронное агентство напуганная, с полным чемоданом денег и необходимостью обмануть своих преследователей, разыграв собственную смерть. Исабель бросила Линча, владельца похоронного агентства, когда Лео, их общий сын, был еще малышом. Она ушла бесследно, навсегда изменив жизнь этих двух человек. И теперь она появляется в агентстве, раненная и испуганная, прося Линча, чтобы он спас ее. Она ничего не может ему объяснить, она не собирается рассказывать, где была все эти годы, ей просто нужно, чтобы он ей помог. Это не простое решение для честного человека, но любовь способна на большее, чем разум. "Смерть" и "Воскрешение" Исабель, выходят настолько хорошо, что она сама берется за то, чтобы убедить персонал похоронного агентства открыть параллельный бизнес. Несмотря на недомолвки Линча, конфликты с Лео, который не знает, что Исабель его мать, и скрытую опасность в том, что живые умирают, или что их родственники раскроют обман, похоронное агентство "Линч" превращается в веселящий и жуткий бизнес ложных смертей, который, на протяжении 13 серий, раскрывает различные обстоятельства, из-за которых живой хочет выдать себя за мертвого и начать все заново. Черный юмор, причудливые ситуации и непочтительный взгляд на смерть, станут элементами этого сериала, который рассказывает о двух коллективных мечтах: иметь возможность начать новую жизнь и присутствовать на собственных похоронах, чтобы увидеть, кто нас любил в этой.

2 сезон

Херонимо Линч теперь мертв для системы и "Послание из гроба" возрождено в подполье. Но прошлое возвращается, чтобы забрать долги, и это подвергнет риску самое ценное... жизнь Лео. Чтобы спасти его, Линч предпринимает путь без возврата.

3 сезон

Буэнос-Айрес кажется идеальным местом, для того, чтобы сначала Линч и Хавьер, а потом Эмилио и Исабель, укрылись там в поисках мира и спокойствия, но здесь Херонимо Линч сталкивается со своими худшими врагами и худшими страхами. В предполагаемой операции, организованной отделом по защите свидетелей Интерпола, все оказываются замешанными в зловещем плане, задуманном криминальными умами, которые используют работников похоронного агентства как марионеток без их ведома и с фатальными последствиями. Для всех, Буэнос-Айрес станет "до и после" и уже ничто не будет прежним и никто не останется самим собой.
1 сезон:
General
Complete name : N: Lynch_S01.E01_filmrus.net.mp4
Format : MPEG-4
Format profile : Base Media
Codec ID : isom
File size : 1.10 GiB
Duration : 53mn 18s
Overall bit rate mode : Variable
Overall bit rate : 2 946 Kbps
Track name/Position : 1
Recorded date : 2014
Writing application : Lavf55.19.104
Cover : Yes

Video
ID : 1
Format : AVC
Format/Info : Advanced Video Codec
Format profile : Main@L3.2
Format settings, CABAC : Yes
Format settings, ReFrames : 2 frames
Format settings, GOP : M=2, N=25
Codec ID : avc1
Codec ID/Info : Advanced Video Coding
Duration : 53mn 18s
Bit rate mode : Variable
Bit rate : 2 776 Kbps
Maximum bit rate : 5 850 Kbps
Width : 1 280 pixels
Height : 720 pixels
Display aspect ratio : 16:9
Frame rate mode : Variable
Frame rate : 29.970 fps
Original frame rate : 30.303 fps
Minimum frame rate : 29.421 fps
Maximum frame rate : 30.303 fps
Color space : YUV
Chroma subsampling : 4:2:0
Bit depth : 8 bits
Scan type : Progressive
Bits/(Pixel*Frame) : 0.101
Stream size : 1.03 GiB (94%)

Audio
ID : 2
Format : AAC
Format/Info : Advanced Audio Codec
Format profile : LC
Codec ID : 40
Duration : 53mn 18s
Duration_LastFrame : -9ms
Bit rate mode : Constant
Bit rate : 160 Kbps
Channel(s) : 2 channels
Channel positions : Front: L R
Sampling rate : 48.0 KHz
Compression mode : Lossy
Stream size : 61.0 MiB (5%)
Language : Russian
=======================================================================
2 сезон:
General
Complete name : N: Lynch_2 - Episode_02_filmrus.net.mp4
Format : MPEG-4
Format profile : Base Media
Codec ID : isom
File size : 885 MiB
Duration : 45mn 1s
Overall bit rate mode : Variable
Overall bit rate : 2 749 Kbps
Track name/Position : 1
Recorded date : 2014
Writing application : Lavf55.19.104
Cover : Yes

Video
ID : 1
Format : AVC
Format/Info : Advanced Video Codec
Format profile : Main@L3.2
Format settings, CABAC : Yes
Format settings, ReFrames : 2 frames
Format settings, GOP : M=2, N=25
Codec ID : avc1
Codec ID/Info : Advanced Video Coding
Duration : 45mn 1s
Bit rate mode : Variable
Bit rate : 2 578 Kbps
Maximum bit rate : 5 850 Kbps
Width : 1 280 pixels
Height : 720 pixels
Display aspect ratio : 16:9
Frame rate mode : Variable
Frame rate : 29.970 fps
Original frame rate : 30.303 fps
Minimum frame rate : 29.412 fps
Maximum frame rate : 30.303 fps
Color space : YUV
Chroma subsampling : 4:2:0
Bit depth : 8 bits
Scan type : Progressive
Bits/(Pixel*Frame) : 0.093
Stream size : 830 MiB (94%)

Audio
ID : 2
Format : AAC
Format/Info : Advanced Audio Codec
Format profile : LC
Codec ID : 40
Duration : 45mn 1s
Duration_LastFrame : -9ms
Bit rate mode : Constant
Bit rate : 160 Kbps
Channel(s) : 2 channels
Channel positions : Front: L R
Sampling rate : 48.0 KHz
Compression mode : Lossy
Stream size : 51.5 MiB (6%)
Language : Russian
===============================================================================
3 сезон:
General
Complete name : N:линч3 сезонLynch_3 - Episode_02_filmrus.net.mp4
Format : MPEG-4
Format profile : Base Media
Codec ID : isom
File size : 844 MiB
Duration : 42mn 22s
Overall bit rate mode : Variable
Overall bit rate : 2 786 Kbps
Track name/Position : 1
Recorded date : 2014
Writing application : Lavf55.19.104
Cover : Yes

Video
ID : 1
Format : AVC
Format/Info : Advanced Video Codec
Format profile : Main@L3.2
Format settings, CABAC : Yes
Format settings, ReFrames : 2 frames
Format settings, GOP : M=2, N=25
Codec ID : avc1
Codec ID/Info : Advanced Video Coding
Duration : 42mn 22s
Bit rate mode : Variable
Bit rate : 2 616 Kbps
Maximum bit rate : 5 850 Kbps
Width : 1 280 pixels
Height : 720 pixels
Display aspect ratio : 16:9
Frame rate mode : Variable
Frame rate : 29.970 fps
Original frame rate : 30.303 fps
Minimum frame rate : 29.412 fps
Maximum frame rate : 30.303 fps
Color space : YUV
Chroma subsampling : 4:2:0
Bit depth : 8 bits
Scan type : Progressive
Bits/(Pixel*Frame) : 0.095
Stream size : 793 MiB (94%)

Audio
ID : 2
Format : AAC
Format/Info : Advanced Audio Codec
Format profile : LC
Codec ID : 40
Duration : 42mn 22s
Duration_LastFrame : -9ms
Bit rate mode : Constant
Bit rate : 160 Kbps
Channel(s) : 2 channels
Channel positions : Front: L R
Sampling rate : 48.0 KHz
Compression mode : Lossy
Stream size : 48.5 MiB (6%)
Language : Russian
Релиз от: юлястенюгина
Воспроизводит: также на APLLE TV.
Озвучка:
1 сезон: Андрей Питерский, Камила Юнусова, Евгений Киселев, Алла Блаер - Любительский многоголосый (Victory films & ViruseProject)
2-3 сезоны: rogikh - Любительский одноголосый



Файлы:
Качество: HDTVRip 720p
Видео: MPEG-4 AVC, 2776, 2578, 2616 Кбит/с, 1280x720
Аудио: Русский (AAC, 2 ch, 160 Кбит/с) / Любительский многоголосый (Victory films & ViruseProject), Любительский одноголосый (rogikh)
Продолжительность: 30 х ~ 00:45:00



СЕМПЛ

Релиз:



   Похожие торренты   Торрент   Размер 
В этой теме нет новых непрочитанных сообщений. Линч / Послание из гроба / Lynch [01х01-13 из 13] (2012) HDRip | L

8 | 5

6.97 ГБ

В этой теме нет новых непрочитанных сообщений. Спасти Джессику Линч / Saving Jessica Lynch (2003) HDTVRip

2 | 2

1.46 ГБ

В этой теме нет новых непрочитанных сообщений. От гроба до гроба / Odgrobadogroba (2005) DVDRip-AVC | P, Sub

114 | 12

1.46 ГБ

В этой теме нет новых непрочитанных сообщений. От гроба до гроба / Odgrobadogroba (2005) DVDRip | P

53 | 13

1.44 ГБ

В этой теме нет новых непрочитанных сообщений. Тёмный ангел / Lynch [S01] (2012) HDTVRip от Generalfilm | Домашний

37 | 11

7.59 ГБ

В этой теме нет новых непрочитанных сообщений. Линч / Lincz (2010) HDTVRip | L1

3 | 4

1.37 ГБ

В этой теме нет новых непрочитанных сообщений. Молчание до гроба / Sexting in Suburbia (2012) DVBRip | P

714 | 44

1.4 ГБ




Вы не можете начинать темы
Вы не можете отвечать на сообщения
Вы не можете редактировать свои сообщения
Вы не можете удалять свои сообщения
Вы не можете добавлять вложения

Перейти:  
Для Мосгорсуда, Роскомнадзора и рекламодателей: mosgorsud-torrent[собачка]yandex.ru
 Вход
ppkBB3cker v.2 © 2008-2014 @ PPK
[ Time : 0.600s | 17 Queries | GZIP : On ]

Торрент трекер RUTOR.IN, Не можете зайти на rutor.org? Какой новый адрес рутор? Какое зеркало рутор? Не работает rutor.org и зеркала? Тогда наш торрент специально для вас. Rutor.in неофициальное зеркало rutor. В случае если у Вас заблокирован rutor или вдруг Вы не можете на него зайти, то Вы без труда сможете скачать бесплатно и без рекламы последние новинки кино, игр, сериалов и прочего у нас, на Rutor.in. Не нужно использовать прокси, чтобы зайти на рутор, достаточно воспользоваться нашим ресурсом. Все новые фильмы, игры, сериалы, книги и музыка за 2013 и 2014 годы через торрент бесплатно. Скачивайте фильмы в хорошем качестве, игры для пк, xbox, playstation без регистрации. У нас вы найдете новые Зарубежные сериалы и Русские сериалы 2013, 2014, 2015 годов. Оставайтесь с нами, качайте любимые фильмы, игры, сериалы, книги и музыку.
cron