img image001 image001 image001 image001 image001 image001 image001 image001 image001 image001 image001 image001 image001 image001 image001

Planets Sun Sun Sun
Статистика раздачи
Автор: Nickolas3434 | Размер: 2.33 ГБ | Добавлен: 17 мар 2014
Раздают: 346    Качают: 72
Скачать торрент
Скачать торрент
Описание торрента

СообщениеДобавлено: 17 мар 2014 


Страна: Россия / Грин-фильм, Приор Продакшн
Жанр: мелодрама
Год выпуска: 2013
Продолжительность: 4 x ~00:44:00

Перевод: не требуется
Cубтитры: нет
Оригинальная аудиодорожка: русский

Режиссер: Алексей Праздников

В ролях: Наталия Солдатова, Александр Ратников, Яков Шамшин, Оксана Сташенко, Андрей Кошевой, Антон Юрьев

Описание: Света и Дима живут в чудесном городке Блинове, на Золотом кольце. Им — около тридцати, у них — семилетний Санька и полугодовалая Леночка. У мамы Светы, Ольги Николаевны, пятидесятилетней одинокой красавицы, — артель производства керамики для туристов. Света работает там же — рисует приволжские орнаменты для чашек-плошек.
Дима — талантливый повар. Но в очередной раз остался без работы: его кулинарные изыски и борьба с нарушениями качества и количества продуктов ко двору не приходятся. Характер у Димы легкий: он по-прежнему кормит ораву друзей блинами и мечтает о ресторане на берегу Волги. А Света устала от безденежья и нестабильности. И Ольга зятя не жалует: не такого мужа-романтика хотела она для своей дочки. Вот хоть Петька—одноклассник: юрист, на иномарке разъезжает…
И вот, когда семейная лодка почти разбилась о быт, Света выигрывает в лотерею три миллиона! И… не говорит об этом мужу… Ольга одобряет: «Молодец! Бросай его, с таким стартовым капиталом и без мужика не пропадешь!». Но Света делает неожиданный ход. Все выигранные деньги она… вкладывает в покупку помещения для ресторана. Петр, по Светиной просьбе, представляется владельцем бизнеса и приглашает Диму на работу шеф-поваром. Петр решает порадовать местное население и заезжих иностранных туристов высокой итальянской кухней и прочими «фрикасе из бумбараса».



Качество: DVDRip (DVD9 R5)
Формат: AVI

Видео: 720x400 (16:9), 25.000 fps, XViD ~ 1700 kbps avg, 0.236 bit/pixel
Аудио: 48 kHz, АС3 2 ch, 192 kbps, русский

Раздача от:
Общее
Полное имя : Teshiny.bliny.2013.O.DVDRip_[New-Team]_by_avproh1.avi
Формат : AVI
Формат/Информация : Audio Video Interleave
Размер файла : 592 Мбайт
Продолжительность : 43 м.
Общий поток : 1901 Кбит/сек
Программа кодирования : VirtualDubMod 1.5.10.3 | www.virtualdub-fr.org || (build 2550/release)
Библиотека кодирования : VirtualDubMod build 2550/release

Видео
Идентификатор : 0
Формат : MPEG-4 Visual
Профиль формата : Advanced Simple@L5
Параметр BVOP формата : 1
Параметр QPel формата : Нет
Параметр GMC формата : Без точки перехода
Параметр матрицы формата : Выборочная
Идентификатор кодека : XVID
Идентификатор кодека/Подсказка : XviD
Продолжительность : 43 м.
Битрейт : 1700 Кбит/сек
Ширина : 720 пикселей
Высота : 400 пикселей
Соотношение сторон : 16:9
Частота кадров : 25,000 кадров/сек
Цветовое пространство : YUV
Субдискретизация насыщенности : 4:2:0
Битовая глубина : 8 бит
Тип развёртки : Прогрессивная
Метод сжатия : С потерями
Бит/(Пиксели*Кадры) : 0.236
Размер потока : 529 Мбайт (89%)
Библиотека кодирования : XviD 73

Аудио
Идентификатор : 1
Формат : AC-3
Формат/Информация : Audio Coding 3
Расширение режима : CM (complete main)
Параметр Endianness формата : Big
Идентификатор кодека : 2000
Продолжительность : 43 м.
Вид битрейта : Постоянный
Битрейт : 192 Кбит/сек
Каналы : 2 канала
Расположение каналов : Front: L R
Частота : 48,0 КГц
Битовая глубина : 16 бит
Метод сжатия : С потерями
Размер потока : 59,8 Мбайт (10%)
Выравнивание : Разделение по промежуткам
Продолжительность промежутка : 40 мс. (1,00 видеокадр)
Время предзагрузки промежутка : 500 мс.






   Похожие торренты   Торрент   Размер 
В этой теме нет новых непрочитанных сообщений. Тёщины блины [01-04 из 04] (2013) DVDRip-AVC от New-Team | лицензия

152 | 38

2.33 ГБ

В этой теме нет новых непрочитанных сообщений. Тёщины блины [01-04 из 4] (2013) DVD9 R5 от New-Team | лицензия

34 | 19

7.46 ГБ

В этой теме нет новых непрочитанных сообщений. Тещины блины [01-04 из 04] (2013) WEB-DLRip

3 | 1

2.77 ГБ

В этой теме нет новых непрочитанных сообщений. Тещины блины [01-04 из 04] (2013) WEB-DLRip от Generalfilm

426 | 147

2.19 ГБ

В этой теме нет новых непрочитанных сообщений. Тещины блины [01-04 из 04] (2013) WEB- DLRip-AVC от Nikolspup

12 | 9

2.44 ГБ

В этой теме нет новых непрочитанных сообщений. Тещины блины [01-04 из 04] (2013) SATRip от РиперАМ

4 | 2

1.97 ГБ

В этой теме нет новых непрочитанных сообщений. Дед 005 (2013) DVDRip-AVC от New-Team | Лицензия

229 | 9

1.46 ГБ




Вы не можете начинать темы
Вы не можете отвечать на сообщения
Вы не можете редактировать свои сообщения
Вы не можете удалять свои сообщения
Вы не можете добавлять вложения

Перейти:  
Для Мосгорсуда, Роскомнадзора и рекламодателей: mosgorsud-torrent[собачка]yandex.ru
 Вход
ppkBB3cker v.2 © 2008-2014 @ PPK
[ Time : 0.054s | 15 Queries | GZIP : Off ]

Торрент трекер RUTOR.IN, Не можете зайти на rutor.org? Какой новый адрес рутор? Какое зеркало рутор? Не работает rutor.org и зеркала? Тогда наш торрент специально для вас. Rutor.in неофициальное зеркало rutor. В случае если у Вас заблокирован rutor или вдруг Вы не можете на него зайти, то Вы без труда сможете скачать бесплатно и без рекламы последние новинки кино, игр, сериалов и прочего у нас, на Rutor.in. Не нужно использовать прокси, чтобы зайти на рутор, достаточно воспользоваться нашим ресурсом. Все новые фильмы, игры, сериалы, книги и музыка за 2013 и 2014 годы через торрент бесплатно. Скачивайте фильмы в хорошем качестве, игры для пк, xbox, playstation без регистрации. У нас вы найдете новые Зарубежные сериалы и Русские сериалы 2013, 2014, 2015 годов. Оставайтесь с нами, качайте любимые фильмы, игры, сериалы, книги и музыку.