img image001 image001 image001 image001 image001 image001 image001 image001 image001 image001 image001 image001 image001 image001 image001

Planets Sun Sun Sun
Статистика раздачи
Автор: Nickolas3434 | Размер: 2.33 ГБ | Добавлен: 17 мар 2014
Раздают: 151    Качают: 37
Скачать торрент
Скачать торрент
Описание торрента

СообщениеДобавлено: 17 мар 2014 


Страна: Россия / Грин-фильм, Приор Продакшн
Жанр: мелодрама
Год выпуска: 2013
Продолжительность: 4 x ~00:44:00

Перевод: не требуется
Cубтитры: нет
Оригинальная аудиодорожка: русский

Режиссер: Алексей Праздников

В ролях: Наталия Солдатова, Александр Ратников, Яков Шамшин, Оксана Сташенко, Андрей Кошевой, Антон Юрьев

Описание: Света и Дима живут в чудесном городке Блинове, на Золотом кольце. Им — около тридцати, у них — семилетний Санька и полугодовалая Леночка. У мамы Светы, Ольги Николаевны, пятидесятилетней одинокой красавицы, — артель производства керамики для туристов. Света работает там же — рисует приволжские орнаменты для чашек-плошек.
Дима — талантливый повар. Но в очередной раз остался без работы: его кулинарные изыски и борьба с нарушениями качества и количества продуктов ко двору не приходятся. Характер у Димы легкий: он по-прежнему кормит ораву друзей блинами и мечтает о ресторане на берегу Волги. А Света устала от безденежья и нестабильности. И Ольга зятя не жалует: не такого мужа-романтика хотела она для своей дочки. Вот хоть Петька—одноклассник: юрист, на иномарке разъезжает…
И вот, когда семейная лодка почти разбилась о быт, Света выигрывает в лотерею три миллиона! И… не говорит об этом мужу… Ольга одобряет: «Молодец! Бросай его, с таким стартовым капиталом и без мужика не пропадешь!». Но Света делает неожиданный ход. Все выигранные деньги она… вкладывает в покупку помещения для ресторана. Петр, по Светиной просьбе, представляется владельцем бизнеса и приглашает Диму на работу шеф-поваром. Петр решает порадовать местное население и заезжих иностранных туристов высокой итальянской кухней и прочими «фрикасе из бумбараса».



Качество: DVDRip-AVC (DVD9 R5)
Формат: MKV

Видео: 720x576 (16:9), 25.000 fps, H264 ~ 1706 kbps avg, 0.165 bit/pixel
Аудио: 48 kHz, АС3 2 ch, 192 kbps, русский

Раздача от:
Общее
Полное имя : Teshiny.bliny.2013.O.DVDRip-AVC_[New-Team]_by_avproh\01.mkv
Формат : Matroska
Версия формата : Version 2
Размер файла : 592 Мбайт
Продолжительность : 43 м.
Общий поток : 1899 Кбит/сек
Дата кодирования : UTC 2014-03-14 02:40:59
Программа кодирования : mkvmerge v6.1.0 ('Old Devil') built on Mar 4 2013 09:10:42
Библиотека кодирования : libebml v1.3.0 + libmatroska v1.4.0

Видео
Идентификатор : 1
Формат : AVC
Формат/Информация : Advanced Video Codec
Профиль формата : High@L4.1
Параметр CABAC формата : Да
Параметр ReFrames формата : 6 кадров
Идентификатор кодека : V_MPEG4/ISO/AVC
Продолжительность : 43 м.
Битрейт : 1706 Кбит/сек
Ширина : 720 пикселей
Высота : 576 пикселей
Соотношение сторон : 16:9
Режим частоты кадров : Постоянный
Частота кадров : 25,000 кадров/сек
Стандарт вещания : PAL
Цветовое пространство : YUV
Субдискретизация насыщенности : 4:2:0
Битовая глубина : 8 бит
Тип развёртки : Прогрессивная
Бит/(Пиксели*Кадры) : 0.165
Размер потока : 520 Мбайт (88%)
Библиотека кодирования : x264 core 138 r2356 a1d3d17
Настройки программы : cabac=1 / ref=6 / deblock=1:-2:-1 / analyse=0x3:0x113 / me=umh / subme=10 / psy=1 / psy_rd=1.00:0.05 / mixed_ref=1 / me_range=32 / chroma_me=1 / trellis=2 / 8x8dct=1 / cqm=0 / deadzone=21,11 / fast_pskip=0 / chroma_qp_offset=-3 / threads=9 / lookahead_threads=1 / sliced_threads=0 / nr=0 / decimate=0 / interlaced=0 / bluray_compat=0 / constrained_intra=0 / bframes=8 / b_pyramid=2 / b_adapt=2 / b_bias=0 / direct=3 / weightb=1 / open_gop=0 / weightp=2 / keyint=250 / keyint_min=25 / scenecut=40 / intra_refresh=0 / rc=2pass / mbtree=0 / bitrate=1706 / ratetol=1.0 / qcomp=0.60 / qpmin=0 / qpmax=69 / qpstep=4 / cplxblur=20.0 / qblur=0.5 / ip_ratio=1.40 / pb_ratio=1.30 / aq=1:1.00
Default : Да
Forced : Нет

Аудио
Идентификатор : 2
Формат : AC-3
Формат/Информация : Audio Coding 3
Расширение режима : CM (complete main)
Параметр Endianness формата : Big
Идентификатор кодека : A_AC3
Продолжительность : 43 м.
Вид битрейта : Постоянный
Битрейт : 192 Кбит/сек
Каналы : 2 канала
Расположение каналов : Front: L R
Частота : 48,0 КГц
Битовая глубина : 16 бит
Метод сжатия : С потерями
Размер потока : 59,8 Мбайт (10%)
Default : Да
Forced : Нет






   Похожие торренты   Торрент   Размер 
В этой теме нет новых непрочитанных сообщений. Тёщины блины [01-04 из 04] (2013) DVDRip от New-Team | лицензия

343 | 72

2.33 ГБ

В этой теме нет новых непрочитанных сообщений. Тёщины блины [01-04 из 4] (2013) DVD9 R5 от New-Team | лицензия

34 | 20

7.46 ГБ

В этой теме нет новых непрочитанных сообщений. Тещины блины [01-04 из 04] (2013) WEB-DLRip

3 | 1

2.77 ГБ

В этой теме нет новых непрочитанных сообщений. Тещины блины [01-04 из 04] (2013) SATRip от РиперАМ

4 | 2

1.97 ГБ

В этой теме нет новых непрочитанных сообщений. Тещины блины [01-04 из 04] (2013) WEB- DLRip-AVC от Nikolspup

12 | 9

2.44 ГБ

В этой теме нет новых непрочитанных сообщений. Тещины блины [01-04 из 04] (2013) WEB-DLRip от Generalfilm

426 | 147

2.19 ГБ

В этой теме нет новых непрочитанных сообщений. Дед 005 (2013) DVDRip-AVC от New-Team | Лицензия

75 | 7

743.11 МБ




Вы не можете начинать темы
Вы не можете отвечать на сообщения
Вы не можете редактировать свои сообщения
Вы не можете удалять свои сообщения
Вы не можете добавлять вложения

Перейти:  
Для Мосгорсуда, Роскомнадзора и рекламодателей: mosgorsud-torrent[собачка]yandex.ru
 Вход
ppkBB3cker v.2 © 2008-2014 @ PPK
[ Time : 0.047s | 16 Queries | GZIP : On ]

Торрент трекер RUTOR.IN, Не можете зайти на rutor.org? Какой новый адрес рутор? Какое зеркало рутор? Не работает rutor.org и зеркала? Тогда наш торрент специально для вас. Rutor.in неофициальное зеркало rutor. В случае если у Вас заблокирован rutor или вдруг Вы не можете на него зайти, то Вы без труда сможете скачать бесплатно и без рекламы последние новинки кино, игр, сериалов и прочего у нас, на Rutor.in. Не нужно использовать прокси, чтобы зайти на рутор, достаточно воспользоваться нашим ресурсом. Все новые фильмы, игры, сериалы, книги и музыка за 2013 и 2014 годы через торрент бесплатно. Скачивайте фильмы в хорошем качестве, игры для пк, xbox, playstation без регистрации. У нас вы найдете новые Зарубежные сериалы и Русские сериалы 2013, 2014, 2015 годов. Оставайтесь с нами, качайте любимые фильмы, игры, сериалы, книги и музыку.