img image001 image001 image001 image001 image001 image001 image001 image001 image001 image001 image001 image001 image001 image001 image001

Planets Sun Sun Sun
Статистика раздачи
Автор: Nickolas3434 | Размер: 14.83 ГБ | Добавлен: 17 мар 2014
Раздают: 41    Качают: 57
Скачать торрент
Скачать торрент
Описание торрента

СообщениеДобавлено: 17 мар 2014 



Информация о фильме
Оригинальное название: Мужская работа 1-2
Год выхода: 2001-2002
Жанр: Боевик, военный
Режиссер: Тигран Кеосаян
В ролях: Фёдор Бондарчук, Алёна Хмельницкая, Александр Мохов, Сергей Векслер, Валерий Баринов, Михаил Жигалов, Владимир Стержаков, Михаил Жигалов, Николай Чиндяйкин, Владимир Еремин, Сергей Маховиков, Андрей Лебедев, Константин Юшкевич, Владимир Болотнов, Анна Данькова, Сахат Дурсунов, Алиса Богарт, Кирилл Бурдихин

О фильме: История трех друзей — Пасечника, Лешего и Гюрзы — крутых парней, сделавших войну своей профессией. Бывшие «афганцы» стали наемниками, зарабатывающими большие деньги в «горячих» точках планеты. Спустя десять лет судьбе было угодно свести их вновь на одном «поле боя» в Чечне… по разные стороны баррикад.
Страна: Россия
Студия: Студия "2В"
Продолжительность: 18 х ~ 00:45:00
Язык: Русский



Файл
Кодек: MPEG-2
Качество: DVD-9
Видео: PAL 4:3 (720x576) VBR
Звук: Русский (Dolby AC3, 2 ch)


Title: Локальный диск
Size: 7.45 Gb ( 7 815 932 KBytes ) - DVD-9
Enabled regions: 1, 2, 3, 4, 5, 6, 7, 8

VTS_01 :
Play Length: 00:44:19+00:44:48+00:45:17+00:44:43+00:42:48+00:42:34+00:44:33+00:43:56
Video: PAL 4:3 (720x576) VBR
Audio:
English (Dolby AC3, 2 ch)

Menu Video:
PAL 4:3 (720x576) VBR
Menu Audio:
Not specified (Dolby AC3, 2 ch)
Menu Subtitles:
Not specified
Menu English Language Unit :
Root Menu


Общее
Полное имя : D:1АААМУЖСКАЯ РАБОТА 1-2Диск 1VIDEO_TSVTS_01_1.VOB
Формат : MPEG-PS
Размер файла : 1024 Мбайт
Продолжительность : 4 м. 7 с.
Режим общего битрейта : Переменный
Общий поток : 34,7 Мбит/сек

Видео
Идентификатор : 224 (0xE0)
Формат : MPEG Video
Версия формата : Version 2
Профиль формата : Main@Main
Параметр BVOP формата : Да
Параметр матрицы формата : Выборочная
Параметр GOP формата : M=3, N=15
Продолжительность : 4 м. 7 с.
Вид битрейта : Переменный
Битрейт : 33,8 Мбит/сек
Максимальный битрейт : 9300 Кбит/сек
Ширина : 720 пикселей
Высота : 576 пикселей
Соотношение сторон : 4:3
Частота кадров : 25,000 кадров/сек
Стандарт вещания : PAL
Цветовое пространство : YUV
Субдискретизация насыщенности : 4:2:0
Битовая глубина : 8 бит
Тип развёртки : Чересстрочная
Порядок развёртки : Нижнее поле первое
Метод сжатия : С потерями
Бит/(Пиксели*Кадры) : 3.260
TimeCode_FirstFrame : 00:00:01:20
TimeCode_Source : Group of pictures header
Размер потока : 998 Мбайт (97%)

Аудио
Идентификатор : 189 (0xBD)-128 (0x80)
Формат : AC-3
Формат/Информация : Audio Coding 3
Расширение режима : CM (complete main)
Параметр Endianness формата : Big
Режим смешивания : DVD-Video
Продолжительность : 4 м. 7 с.
Вид битрейта : Постоянный
Битрейт : 192 Кбит/сек
Каналы : 2 канала
Расположение каналов : Front: L R
Частота : 48,0 КГц
Битовая глубина : 16 бит
Метод сжатия : С потерями
Задержка видео : -80 мс.
Размер потока : 5,67 Мбайт (1%)

Меню





   Похожие торренты   Торрент   Размер 
В этой теме нет новых непрочитанных сообщений. Мужская работа 1-2 (2001-2002) DVDRip

136 | 16

7.39 ГБ

В этой теме нет новых непрочитанных сообщений. Мужская работа [S01-02] (2001-2002) DVDRip от КинозалSAT

33 | 7

9.66 ГБ

В этой теме нет новых непрочитанных сообщений. Мужская работа [01-02] (2015) WEB-DLRip от Generalfilm

2 | 12

1.95 ГБ

В этой теме нет новых непрочитанных сообщений. Мужская работа [01-02] (2015) WEB-DLRip от Generalfilm

7 | 2

3.89 ГБ

В этой теме нет новых непрочитанных сообщений. Мужская работа [01-02] (2015) WEB-DLRip от Generalfilm

5 | 2

5.17 ГБ

В этой теме нет новых непрочитанных сообщений. Мужская работа [01-02] (2015) WEB-DLRip от Generalfilm

10 | 3

4.85 ГБ

В этой теме нет новых непрочитанных сообщений. Мужская работа [01-02] (2015) WEB-DLRip от Generalfilm

2 | 3

4.53 ГБ




Вы не можете начинать темы
Вы не можете отвечать на сообщения
Вы не можете редактировать свои сообщения
Вы не можете удалять свои сообщения
Вы не можете добавлять вложения

Перейти:  
Для Мосгорсуда, Роскомнадзора и рекламодателей: mosgorsud-torrent[собачка]yandex.ru
 Вход
ppkBB3cker v.2 © 2008-2014 @ PPK
[ Time : 0.048s | 14 Queries | GZIP : Off ]

Торрент трекер RUTOR.IN, Не можете зайти на rutor.org? Какой новый адрес рутор? Какое зеркало рутор? Не работает rutor.org и зеркала? Тогда наш торрент специально для вас. Rutor.in неофициальное зеркало rutor. В случае если у Вас заблокирован rutor или вдруг Вы не можете на него зайти, то Вы без труда сможете скачать бесплатно и без рекламы последние новинки кино, игр, сериалов и прочего у нас, на Rutor.in. Не нужно использовать прокси, чтобы зайти на рутор, достаточно воспользоваться нашим ресурсом. Все новые фильмы, игры, сериалы, книги и музыка за 2013 и 2014 годы через торрент бесплатно. Скачивайте фильмы в хорошем качестве, игры для пк, xbox, playstation без регистрации. У нас вы найдете новые Зарубежные сериалы и Русские сериалы 2013, 2014, 2015 годов. Оставайтесь с нами, качайте любимые фильмы, игры, сериалы, книги и музыку.