img image001 image001 image001 image001 image001 image001 image001 image001 image001 image001 image001 image001 image001 image001 image001

Planets Sun Sun Sun
Статистика раздачи
Автор: Nickolas3434 | Размер: 6.51 ГБ | Добавлен: 17 мар 2014
Раздают: 312    Качают: 687
Скачать торрент
Скачать торрент
Описание торрента

СообщениеДобавлено: 17 мар 2014 



Название: Чёрные паруса
Оригинальное название: Black Sails
Год выхода: 2014
Жанр: Драма, приключения
Режиссер: Нил Маршалл, Сэм Миллер, Т.Дж. Скотт
В ролях: Тоби Стивенс, Ханна Нью, Люк Арнольд, Зэк Макгоун, Тоби Шмитц, Клара Пэджет, Марк Райан, Хаким Кае-Казим, Дилан Скьюс, Шон Майкл



1715 год. Золотой век — вершина пиратства в Карибском море. Остров бывшей британской колонии Нью-Провиденс является территорией беззакония, контролируемый самыми известными пиратскими капитанами в истории. Самым грозным из них является капитан Флинт.Но британский флот возвращается в эти воды, угрожая уничтожить Флинта и его команду. Движимый глубокими, сложными, даже романтическими мотивами, Флинт становится союзником с грозной Элеонорой Гатри, дочерью местного вора в законе, который превращает добычу пиратов в прибыль. Вместе они создают план, охотясь за высшей наградой, выиграв которую, они остановят захват своего дома и обеспечат их выживание.Им противостоит ряд соперников: конкурент капитана, завидующий власти Флинта, отец Элеоноры, чьи амбиции на острове приводят к конфликту с дочерью, и молодой моряк, Джон Сильвер, недавно принятый в экипаж Флинта, которому каким-то образом удается постоянно срывать планы своего капитана.



Страна: США
Студия: Film Afrika Worldwide CC, Platinum Dunes
Продолжительность: 8 х ~ 00:54:00
Перевод: Профессиональный многоголосый


Файл
Формат: MKV
Кодек: MPEG-4 AVC
Качество: HDTVRip (AVC)
Видео: 1024x576 ~ 1800 Кбит/с
Звук: АС3, 6 ch, 384 Кбит/с
Автор рипа:




Общее
Уникальный идентификатор : 173066547466050280592919110835976115328 (0x82336794C2BD1C54A8B7AD809FD19480)
Полное имя : D:ВидеоЧёрные парусаBlack.Sails.s01e01.mkv
Формат : Matroska
Версия формата : Version 2
Размер файла : 1013 Мбайт
Продолжительность : 1 ч. 4 м.
Общий поток : 2186 Кбит/сек
Дата кодирования : UTC 2014-01-20 14:33:39
Программа кодирования : mkvmerge v5.6.0 ('Kenya Kane') built on Jun 29 2012 15:01:44
Библиотека кодирования : libebml v1.2.3 + libmatroska v1.3.0

Видео
Идентификатор : 1
Формат : AVC
Формат/Информация : Advanced Video Codec
Профиль формата : High@L4.1
Параметр CABAC формата : Да
Параметр ReFrames формата : 4 кадра
Идентификатор кодека : V_MPEG4/ISO/AVC
Продолжительность : 1 ч. 4 м.
Битрейт : 1800 Кбит/сек
Ширина : 1024 пикселя
Высота : 576 пикселей
Соотношение сторон : 16:9
Режим частоты кадров : Постоянный
Частота кадров : 23,976 кадра/сек
Цветовое пространство : YUV
Субдискретизация насыщенности : 4:2:0
Битовая глубина : 8 бит
Тип развёртки : Прогрессивная
Бит/(Пиксели*Кадры) : 0.127
Размер потока : 815 Мбайт (80%)
Библиотека кодирования : x264 core 125 r2200 999b753
Настройки программы : cabac=1 / ref=4 / deblock=1:-2:-2 / analyse=0x3:0x133 / me=umh / subme=10 / psy=1 / psy_rd=5.00:0.01 / mixed_ref=1 / me_range=32 / chroma_me=1 / trellis=2 / 8x8dct=1 / cqm=0 / deadzone=21,11 / fast_pskip=0 / chroma_qp_offset=-3 / threads=6 / lookahead_threads=1 / sliced_threads=0 / nr=0 / decimate=1 / interlaced=0 / bluray_compat=0 / constrained_intra=0 / bframes=4 / b_pyramid=2 / b_adapt=2 / b_bias=0 / direct=3 / weightb=1 / open_gop=0 / weightp=2 / keyint=250 / keyint_min=23 / scenecut=40 / intra_refresh=0 / rc_lookahead=50 / rc=2pass / mbtree=1 / bitrate=1800 / ratetol=1.0 / qcomp=0.60 / qpmin=0 / qpmax=69 / qpstep=4 / cplxblur=20.0 / qblur=0.5 / ip_ratio=1.40 / aq=1:1.10
Default : Да
Forced : Нет

Аудио
Идентификатор : 2
Формат : AC-3
Формат/Информация : Audio Coding 3
Расширение режима : CM (complete main)
Параметр Endianness формата : Big
Идентификатор кодека : A_AC3
Продолжительность : 1 ч. 4 м.
Вид битрейта : Постоянный
Битрейт : 384 Кбит/сек
Каналы : 6 каналов
Расположение каналов : Front: L C R, Side: L R, LFE
Частота : 48,0 КГц
Битовая глубина : 16 бит
Метод сжатия : С потерями
Размер потока : 178 Мбайт (18%)
Default : Да
Forced : Нет








   Похожие торренты   Торрент   Размер 
В этой теме нет новых непрочитанных сообщений. Чёрные Паруса / Black Sails [S01] (2014) HDTVRip | AlexFilm

437 | 319

5.5 ГБ

В этой теме нет новых непрочитанных сообщений. Чёрные Паруса / Black Sails [S01] (2014) HDTVRip 720p | AlexFilm

187 | 187

15.48 ГБ

В этой теме нет новых непрочитанных сообщений. Чёрные Паруса / Black Sails [01x01-07 из 08] (2014) HDTVRip | AlexFilm

168 | 419

4.82 ГБ

В этой теме нет новых непрочитанных сообщений. Чёрные Паруса / Black Sails [01x01-05] (2014) HDTVRip | AlexFilm

2 | 2

3.48 ГБ

В этой теме нет новых непрочитанных сообщений. Чёрные Паруса / Black Sails [01x01-06 из 08] (2014) HDTVRip | AlexFilm

25 | 153

4.14 ГБ

В этой теме нет новых непрочитанных сообщений. Чёрные Паруса / Black Sails [01x01-03] (2014) HDTVRip | AlexFilm

231 | 210

2.1 ГБ

В этой теме нет новых непрочитанных сообщений. Чёрные Паруса / Black Sails [01x01-04] (2014) HDTVRip | AlexFilm

342 | 676

2.82 ГБ




Вы не можете начинать темы
Вы не можете отвечать на сообщения
Вы не можете редактировать свои сообщения
Вы не можете удалять свои сообщения
Вы не можете добавлять вложения

Перейти:  
Для Мосгорсуда, Роскомнадзора и рекламодателей: mosgorsud-torrent[собачка]yandex.ru
 Вход
ppkBB3cker v.2 © 2008-2014 @ PPK
[ Time : 0.611s | 15 Queries | GZIP : Off ]

Торрент трекер RUTOR.IN, Не можете зайти на rutor.org? Какой новый адрес рутор? Какое зеркало рутор? Не работает rutor.org и зеркала? Тогда наш торрент специально для вас. Rutor.in неофициальное зеркало rutor. В случае если у Вас заблокирован rutor или вдруг Вы не можете на него зайти, то Вы без труда сможете скачать бесплатно и без рекламы последние новинки кино, игр, сериалов и прочего у нас, на Rutor.in. Не нужно использовать прокси, чтобы зайти на рутор, достаточно воспользоваться нашим ресурсом. Все новые фильмы, игры, сериалы, книги и музыка за 2013 и 2014 годы через торрент бесплатно. Скачивайте фильмы в хорошем качестве, игры для пк, xbox, playstation без регистрации. У нас вы найдете новые Зарубежные сериалы и Русские сериалы 2013, 2014, 2015 годов. Оставайтесь с нами, качайте любимые фильмы, игры, сериалы, книги и музыку.