img image001 image001 image001 image001 image001 image001 image001 image001 image001 image001 image001 image001 image001 image001 image001

Planets Sun Sun Sun
Статистика раздачи
Автор: Nickolas3434 | Размер: 41.11 ГБ | Добавлен: 17 мар 2014
Раздают: 106    Качают: 53
Скачать торрент
Скачать торрент
Описание торрента

СообщениеДобавлено: 17 мар 2014 




Информация о фильме
Название: Карточный домик / House of Cards
Год выпуска: 2013
Жанр: Драма
Режиссеры: Джеймс Фоули, Дэвид Финчер, Карл Франклин
В ролях: Кевин Спейси, Робин Райт, Кейт Мара, Кори Столл, Майкл Келли, Сакина Джэффри, Жаклин Джонс, Рюэл Пендлтон, Гилберт Сото, Сандрин Холт


Описание:
Амбициозный конгрессмен от Демократической партии Фрэнк Андервуд в обмен на обещание сделать его госсекретарём помогает Гаррету Уокеру стать президентом США. Однако после выборов глава администрации президента Линда Васкез сообщает Андервуду, что он не получит должность. Взбешенные предательством Фрэнк и его жена готовы пойти на всё, чтобы отомстить новоиспечённому президенту.

Релиз группа:



Продолжительность: 13 ~ 00:55:00
Выпущено: США / Media Rights Capital, Panic Pictures (II), Trigger Street Productions
Перевод: Профессиональный (многоголосый, закадровый) - Первый канал
Файл
Формат: TS
Качество: HDTV 1080i
Видео: MPEG-4 AVC/H.264, ~8577 Кбит/сек, 1920x1080
Аудио: AC3 2.0, 384 Кбит/сек
Формат : MPEG-TS
Размер файла : 3,43 Гбайт
Продолжительность : 52 м.
Режим общего битрейта : Переменный
Общий поток : 9431 Кбит/сек
Видео
Идентификатор : 101 (0x65)
Идентификатор меню : 1 (0x1)
Формат : AVC
Формат/Информация : Advanced Video Codec
Профиль формата : High@L4.0
Параметр CABAC формата : Да
Параметр ReFrames формата : 3 кадра
Идентификатор кодека : 27
Продолжительность : 52 м.
Битрейт : 8577 Кбит/сек
Ширина : 1920 пикселей
Высота : 1080 пикселей
Соотношение сторон : 16:9
Частота кадров : 25,000 кадров/сек
Стандарт вещания : Component
Цветовое пространство : YUV
Субдискретизация насыщенности : 4:2:0
Битовая глубина : 8 бит
Тип развёртки : Чересстрочная
Порядок развёртки : Верхнее поле первое
Бит/(Пиксели*Кадры) : 0.165
Размер потока : 3,12 Гбайт (91%)
Основные цвета : BT.709
Характеристики трансфера : BT.709
Коэффициенты матрицы : BT.709
Аудио
Идентификатор : 111 (0x6F)
Идентификатор меню : 1 (0x1)
Формат : AC-3
Формат/Информация : Audio Coding 3
Расширение режима : CM (complete main)
Параметр Endianness формата : Big
Идентификатор кодека : 6
Продолжительность : 52 м.
Вид битрейта : Постоянный
Битрейт : 384 Кбит/сек
Каналы : 2 канала
Расположение каналов : Front: L R
Частота : 48,0 КГц
Битовая глубина : 16 бит
Метод сжатия : С потерями
Размер потока : 143 Мбайт (4%)
Язык : Russian







   Похожие торренты   Торрент   Размер 
В этой теме нет новых непрочитанных сообщений. Карточный домик / House of Cards [S01] (2013) HDTV 1080i | Первый канал

16 | 22

41.11 ГБ

В этой теме нет новых непрочитанных сообщений. Карточный домик / House of Cards [S01] (2013) HDTVRip-AVC | Первый канал

163 | 14

7.54 ГБ

В этой теме нет новых непрочитанных сообщений. Карточный Домик / House of Cards [S01] (2013) HDTVRip 720p | Первый Канал

1457 | 484

7.21 ГБ

В этой теме нет новых непрочитанных сообщений. Карточный домик / House of Cards [S01-02] (2013-2014) HDRip | Первый канал

5654 | 3311

8.64 ГБ

В этой теме нет новых непрочитанных сообщений. Карточный домик / House of Cards [01х01-13 из 13] (2013) HDTVRip от Scarabey | Первый канал

50 | 14

9.03 ГБ

В этой теме нет новых непрочитанных сообщений. Карточный домик / House of Cards [01х01-13 из 13] (2013) HDRip от Scarabey | Первый канал

714 | 242

9.67 ГБ

В этой теме нет новых непрочитанных сообщений. Карточный Домик / House of Cards [S01-03] (2013-2015) HDRip от qqss44 | P | Первый канал

914 | 716

26.26 ГБ




Вы не можете начинать темы
Вы не можете отвечать на сообщения
Вы не можете редактировать свои сообщения
Вы не можете удалять свои сообщения
Вы не можете добавлять вложения

Перейти:  
Для Мосгорсуда, Роскомнадзора и рекламодателей: mosgorsud-torrent[собачка]yandex.ru
 Вход
ppkBB3cker v.2 © 2008-2014 @ PPK
[ Time : 0.164s | 14 Queries | GZIP : Off ]

Торрент трекер RUTOR.IN, Не можете зайти на rutor.org? Какой новый адрес рутор? Какое зеркало рутор? Не работает rutor.org и зеркала? Тогда наш торрент специально для вас. Rutor.in неофициальное зеркало rutor. В случае если у Вас заблокирован rutor или вдруг Вы не можете на него зайти, то Вы без труда сможете скачать бесплатно и без рекламы последние новинки кино, игр, сериалов и прочего у нас, на Rutor.in. Не нужно использовать прокси, чтобы зайти на рутор, достаточно воспользоваться нашим ресурсом. Все новые фильмы, игры, сериалы, книги и музыка за 2013 и 2014 годы через торрент бесплатно. Скачивайте фильмы в хорошем качестве, игры для пк, xbox, playstation без регистрации. У нас вы найдете новые Зарубежные сериалы и Русские сериалы 2013, 2014, 2015 годов. Оставайтесь с нами, качайте любимые фильмы, игры, сериалы, книги и музыку.