img image001 image001 image001 image001 image001 image001 image001 image001 image001 image001 image001 image001 image001 image001 image001

Planets Sun Sun Sun
Статистика раздачи
Автор: Nickolas3434 | Размер: 5.4 ГБ | Добавлен: 19 мар 2014
Раздают: 25    Качают: 107
Скачать торрент
Скачать торрент
Описание торрента

СообщениеДобавлено: 19 мар 2014 

Сверхъестественное / Supernatural

Год выпуска: 2013
Страна: США
Жанр: ужасы, фэнтези, триллер, драма, детектив
Продолжительность: 0:42:16

Перевод: нет
Субтитры: русские, английские
Режиссёр: Роберт Сингер, Филип Сгриккиа, Ким Мэннерс

В ролях: Джаред Падалеки, Дженсен Эклс, Джим Бивер, Миша Коллинз, Марк Шеппард, Марк Пеллегрино, Женевьев Падалеки, Кэти Кэссиди, Джеймс Патрик Стюарт, Саманта Феррис

Описание: Сериал рассказывает о приключениях братьев Сэма и Дина Винчестеров, которые путешествуют по Соединённым Штатам на чёрном автомобиле Chevrolet Impala 1967 года, расследуют паранормальные явления, многие из которых основаны на американских городских легендах и фольклоре, и сражаются с

Сэмпл: http://multi-up.com/911968

Качество: HDTVRip
Формат: AVI
Видео кодек: XVID
Аудио кодек: MP3
Видео: Xvid 624x352 23.976fps
Аудио: MP3 48000Hz stereo 128kbps
General
Complete name : H:VideoСериалыСВЕРХЪЕСТЕСТВЕННОЕ9 СЕЗОН ENGS09E01Supernatural.S09E01.HDTV.avi
Format : AVI
Format/Info : Audio Video Interleave
File size : 349 MiB
Duration : 42mn 15s
Overall bit rate : 1 155 Kbps
Writing application : VirtualDubMod 1.5.10.2 (build 2540/release)
Writing library : VirtualDubMod build 2540/release

Video
ID : 0
Format : MPEG-4 Visual
Format profile : Advanced Simple@L5
Format settings, BVOP : 2
Format settings, QPel : No
Format settings, GMC : No warppoints
Format settings, Matrix : Default (H.263)
Muxing mode : Packed bitstream
Codec ID : XVID
Codec ID/Hint : XviD
Duration : 42mn 15s
Bit rate : 1 017 Kbps
Width : 624 pixels
Height : 352 pixels
Display aspect ratio : 16:9
Frame rate : 23.976 fps
Color space : YUV
Chroma subsampling : 4:2:0
Bit depth : 8 bits
Scan type : Progressive
Compression mode : Lossy
Bits/(Pixel*Frame) : 0.193
Stream size : 308 MiB (88%)
Writing library : XviD 64

Audio
ID : 1
Format : MPEG Audio
Format version : Version 1
Format profile : Layer 3
Mode : Joint stereo
Codec ID : 55
Codec ID/Hint : MP3
Duration : 42mn 15s
Bit rate mode : Constant
Bit rate : 128 Kbps
Channel count : 2 channels
Sampling rate : 48.0 KHz
Compression mode : Lossy
Stream size : 38.7 MiB (11%)
Alignment : Aligned on interleaves
Interleave, duration : 42 ms (1.00 video frame)
Interleave, preload duration : 504 ms




   Похожие торренты   Торрент   Размер 
В этой теме нет новых непрочитанных сообщений. Сверхъестественное / Supernatural [09х01-13] (2013) HDTVRip | Sub

1 | 3

4.39 ГБ

В этой теме нет новых непрочитанных сообщений. Сверхъестественное / Supernatural [09х01-14] (2013) HDTVRip | DreamRecords

2 | 10

6.18 ГБ

В этой теме нет новых непрочитанных сообщений. Сверхъестественное / Supernatural [09х01-13] (2013) HDTVRip | DreamRecords

18 | 34

5.75 ГБ

В этой теме нет новых непрочитанных сообщений. Сверхъестественное / Supernatural [09х01-15] (2013) HDTVRip | DreamRecords

18 | 202

6.63 ГБ

В этой теме нет новых непрочитанных сообщений. Сверхъестественное / Supernatural [09х01-18 из 23] (2013-2014) HDTVRip | DreamRecords

123 | 1848

7.96 ГБ

В этой теме нет новых непрочитанных сообщений. Сверхъестественное / Supernatural [09х01-22 из 23] (2013-2014) HDTVRip | DreamRecords

11 | 25

9.74 ГБ

В этой теме нет новых непрочитанных сообщений. Сверхъестественное / Supernatural [09х01-12] (2013) HDTVRip 720p | DreamRecords

1 | 2

10.97 ГБ




Вы не можете начинать темы
Вы не можете отвечать на сообщения
Вы не можете редактировать свои сообщения
Вы не можете удалять свои сообщения
Вы не можете добавлять вложения

Перейти:  
Для Мосгорсуда, Роскомнадзора и рекламодателей: mosgorsud-torrent[собачка]yandex.ru
 Вход
ppkBB3cker v.2 © 2008-2014 @ PPK
[ Time : 0.086s | 15 Queries | GZIP : Off ]

Торрент трекер RUTOR.IN, Не можете зайти на rutor.org? Какой новый адрес рутор? Какое зеркало рутор? Не работает rutor.org и зеркала? Тогда наш торрент специально для вас. Rutor.in неофициальное зеркало rutor. В случае если у Вас заблокирован rutor или вдруг Вы не можете на него зайти, то Вы без труда сможете скачать бесплатно и без рекламы последние новинки кино, игр, сериалов и прочего у нас, на Rutor.in. Не нужно использовать прокси, чтобы зайти на рутор, достаточно воспользоваться нашим ресурсом. Все новые фильмы, игры, сериалы, книги и музыка за 2013 и 2014 годы через торрент бесплатно. Скачивайте фильмы в хорошем качестве, игры для пк, xbox, playstation без регистрации. У нас вы найдете новые Зарубежные сериалы и Русские сериалы 2013, 2014, 2015 годов. Оставайтесь с нами, качайте любимые фильмы, игры, сериалы, книги и музыку.