img image001 image001 image001 image001 image001 image001 image001 image001 image001 image001 image001 image001 image001 image001 image001

Planets Sun Sun Sun
Статистика раздачи
Автор: Nickolas3434 | Размер: 8.77 ГБ | Добавлен: 21 мар 2014
Раздают: 39    Качают: 23
Скачать торрент
Скачать торрент
Описание торрента

СообщениеДобавлено: 21 мар 2014 

Информация о фильме
Название: Врата
Оригинальное название: The Gates
Год выхода: 2010
Жанр: Триллер, драма, криминал, детектив, вампиры
Режиссер: Дэвид Баррет, Фред Гербер, Терри МакДонаф
В ролях: Рона Митра, Фрэнк Грилло, Марисоль Николс, Люк Мэбли, Трэвис Колдуэлл, Скайлер Сэмюэлс, Чандра Уэст, Колтон Хэйнс, Янина Гаванкар, Джастин Майлз, Виктория Габриэлль Платт, Джорджия Коул, МакКали Миллер, Девин А. Тайлер, Джеймс Престон, Рэйчел ДиПилло, Бретт Каллен, Линден Эшби, Пол Блекторн, Роджер Р. Кросс, Шеннон Лусио, Андреа Пауэлл, Глория Вотсис, Кайл Сикор, Мэтт Корнвэлл, Барбара Элин Вудс, Луис Хертэм, Девон Гаммерсолл, Лори Херинг, Дженнифер Уоррен, Джонни Месснер, Билли Слотер, Джон Родригез, Рэнди Остин, Кэрри Шарбо, Лэни Тейлор, Грейси Уиттон

О фильме:
Детектив Ник Монахан вместе с женой Сарой и двумя детьми Чарли и Даной переезжает из суетливого Чикаго в тихий, охраняемый четырехметровыми воротами, поселок, для того чтобы занять место начальника местной полиции. Однако вскоре Монаханам становится ясно, что за живописной оболочкой, состоящей из хорошеньких домиков и ухоженных газонов, жители пригорода скрывают какие-то темные тайны…



01. Пилотная серия (Pilot).
02. Что скрывает ложь (What Lies Beneath).
03. Нарушение (Breach).
04. Монстр рядом (The Monster Within).
05. Последствия (Repercussions).
06. Юрисдикция (Jurisdiction).
07. Копаясь в грязи (Digging the Dirt).
08. Человек человеку волк(Dog Eat Dog).
09. Личностный кризис (Identity Crisis).
10. Потерянная девочка (Little Girl Lost).
11. Всплывшее (Surfacing).
12. Восход дурной луны (Bad Moon Rising).
13. День отъезда (Moving Day).

Страна: США
Студия: Fox Television Studios, Little Engine Entertainment, Summerland Entertainment
Продолжительность: 13 x ~ 00:43:00
Перевод: Профессиональный (многоголосый) [Первый канал]

Файл
Формат: AVI
Качество: WEB-DLRip
Видео: XviD, 720x408, ~1800 kbps, 23.976 fps
Звук: AC3, 48.0 KHz, 2 ch, 384 Kbps
Субтитры: Нет

Семпл


General
Complete name : E:KinoVrata.S01.2010.XviD.WEB-DLRip.GeneralfilmVrata.s01e03.2010.XviD.WEB-DLRip.Generalfilm.avi
Format : AVI
Format/Info : Audio Video Interleave
File size : 688 MiB
Duration : 43mn 19s
Overall bit rate : 2 221 Kbps
Writing application : VirtualDubMod 1.5.10.3 | www.virtualdub-fr.org || (build 2550/release)
Writing library : VirtualDubMod build 2550/release

Video
ID : 0
Format : MPEG-4 Visual
Format profile : Advanced Simple@L5
Format settings, BVOP : 2
Format settings, QPel : No
Format settings, GMC : No warppoints
Format settings, Matrix : Default (H.263)
Codec ID : XVID
Codec ID/Hint : XviD
Duration : 43mn 19s
Bit rate : 1 828 Kbps
Width : 720 pixels
Height : 408 pixels
Display aspect ratio : 16:9
Frame rate : 23.976 fps
Color space : YUV
Chroma subsampling : 4:2:0
Bit depth : 8 bits
Scan type : Progressive
Compression mode : Lossy
Bits/(Pixel*Frame) : 0.260
Stream size : 566 MiB (82%)
Writing library : XviD 1.2.1 (UTC 2008-12-04)

Audio
ID : 1
Format : AC-3
Format/Info : Audio Coding 3
Mode extension : CM (complete main)
Format settings, Endianness : Big
Codec ID : 2000
Duration : 43mn 19s
Bit rate mode : Constant
Bit rate : 384 Kbps
Channel count : 2 channels
Channel positions : Front: L R
Sampling rate : 48.0 KHz
Bit depth : 16 bits
Compression mode : Lossy
Stream size : 119 MiB (17%)
Alignment : Split accross interleaves
Interleave, duration : 42 ms (1.00 video frame)
Interleave, preload duration : 500 ms

Релиз от:



   Похожие торренты   Торрент   Размер 
В этой теме нет новых непрочитанных сообщений. Врата / The Gates [S01] (2010) WEB-DLRip от Generalfilm | КПК

16 | 7

2.46 ГБ

В этой теме нет новых непрочитанных сообщений. Врата / The Gates [s01] (2010) WEB-DLRip

0 | 3

6.32 ГБ

В этой теме нет новых непрочитанных сообщений. Врата / The Gates [01х01-13 из 13] (2010) WEB-DLRip

9 | 4

5.08 ГБ

В этой теме нет новых непрочитанных сообщений. Врата [01x01-13 (13)] / The Gates (2010) WEB-DLRip 720р от LostFilm

6 | 6

19.01 ГБ

В этой теме нет новых непрочитанных сообщений. Врата / The Gates [01х08] (2010) WEB-DLRip (400р) от FilmGate

0 | 2

497.91 МБ

В этой теме нет новых непрочитанных сообщений. Врата / The Gates [01х03] (2010) TVRip

0 | 2

389.06 МБ

В этой теме нет новых непрочитанных сообщений. Врата / The Gates [01х01] (2010) TVRip

0 | 2

361.41 МБ




Вы не можете начинать темы
Вы не можете отвечать на сообщения
Вы не можете редактировать свои сообщения
Вы не можете удалять свои сообщения
Вы не можете добавлять вложения

Перейти:  
Для Мосгорсуда, Роскомнадзора и рекламодателей: mosgorsud-torrent[собачка]yandex.ru
 Вход
ppkBB3cker v.2 © 2008-2014 @ PPK
[ Time : 0.068s | 16 Queries | GZIP : Off ]

Торрент трекер RUTOR.IN, Не можете зайти на rutor.org? Какой новый адрес рутор? Какое зеркало рутор? Не работает rutor.org и зеркала? Тогда наш торрент специально для вас. Rutor.in неофициальное зеркало rutor. В случае если у Вас заблокирован rutor или вдруг Вы не можете на него зайти, то Вы без труда сможете скачать бесплатно и без рекламы последние новинки кино, игр, сериалов и прочего у нас, на Rutor.in. Не нужно использовать прокси, чтобы зайти на рутор, достаточно воспользоваться нашим ресурсом. Все новые фильмы, игры, сериалы, книги и музыка за 2013 и 2014 годы через торрент бесплатно. Скачивайте фильмы в хорошем качестве, игры для пк, xbox, playstation без регистрации. У нас вы найдете новые Зарубежные сериалы и Русские сериалы 2013, 2014, 2015 годов. Оставайтесь с нами, качайте любимые фильмы, игры, сериалы, книги и музыку.
cron