img image001 image001 image001 image001 image001 image001 image001 image001 image001 image001 image001 image001 image001 image001 image001

Planets Sun Sun Sun
Статистика раздачи
Автор: Nickolas3434 | Размер: 2.19 ГБ | Добавлен: 23 мар 2014
Раздают: 52    Качают: 14
Скачать торрент
Скачать торрент
Описание торрента

СообщениеДобавлено: 23 мар 2014 


Страна: Россия / Про100 Фильм

Жанр: мелодрама
Год выпуска: 2013
Продолжительность: 01:25:10 + 01:26:20 (2 серии)

Перевод: Не требуется
Cубтитры: нет
Оригинальная аудиодорожка: русский

Режиссер: Роман Барабаш

В ролях: Ольга Зайцева, Евгений Воловенко, Джемал Тетруашвили, Сергей Загребнев, Алёна Яковлева, Владимир Носик, Татьяна Лянник, Олег Марусев, Нина Лощинина

Описание: Елене — 39, она специалист по рекламе, успешна, умна, прекрасно выглядит, ее карьера идет в гору, почти любые задачи по плечу! Мужчин вокруг «крутилось» всегда огромное количество. Но Лена — девушка серьезная и настроена больше на карьеру, нежели на личную жизнь. А мимолетные романы давно перестали радовать…
Словом, нет рядом мужчины, да и не очень нужно. Увлекательная работа полностью вытеснила личную жизнь. Гром среди ясного неба звучит в тот момент, когда врачи обнаружили застарелую болезнь по «женской» части. А ведь Елене еще чуть-чуть и - 40 лет! Вердикт категоричен: нужно срочно беременеть и рожать! В самые кратчайшие сроки!



Качество: DVDRip / DVD9 R5
Формат: AVI

Видео: 720x400 (16:9), 25.000 fps, XviD ~ 1624 kbps avg, 0.226 bit/pixel
Аудио: 48 kHz, Dolby AC3, 2 ch, 192 kbps, русский

Раздача от:
Общее
Полное имя : Partiya.dlya.chempionki.2013.O.DVDRip_[New-Team]_by_avproh1.avi
Формат : AVI
Формат/Информация : Audio Video Interleave
Размер файла : 1,09 Гбайт
Продолжительность : 1 ч. 25 м.
Общий поток : 1826 Кбит/сек
Программа кодирования : VirtualDubMod 1.5.10.3 | www.virtualdub-fr.org || (build 2550/release)
Библиотека кодирования : VirtualDubMod build 2550/release

Видео
Идентификатор : 0
Формат : MPEG-4 Visual
Профиль формата : Advanced Simple@L5
Параметр BVOP формата : 1
Параметр QPel формата : Нет
Параметр GMC формата : Без точки перехода
Параметр матрицы формата : Выборочная
Идентификатор кодека : XVID
Идентификатор кодека/Подсказка : XviD
Продолжительность : 1 ч. 25 м.
Битрейт : 1624 Кбит/сек
Ширина : 720 пикселей
Высота : 400 пикселей
Соотношение сторон : 16:9
Частота кадров : 25,000 кадров/сек
Цветовое пространство : YUV
Субдискретизация насыщенности : 4:2:0
Битовая глубина : 8 бит
Тип развёртки : Прогрессивная
Метод сжатия : С потерями
Бит/(Пиксели*Кадры) : 0.226
Размер потока : 989 Мбайт (89%)
Библиотека кодирования : XviD 73

Аудио
Идентификатор : 1
Формат : AC-3
Формат/Информация : Audio Coding 3
Расширение режима : CM (complete main)
Параметр Endianness формата : Big
Идентификатор кодека : 2000
Продолжительность : 1 ч. 25 м.
Вид битрейта : Постоянный
Битрейт : 192 Кбит/сек
Каналы : 2 канала
Расположение каналов : Front: L R
Частота : 48,0 КГц
Битовая глубина : 16 бит
Метод сжатия : С потерями
Размер потока : 117 Мбайт (11%)
Выравнивание : Разделение по промежуткам
Продолжительность промежутка : 40 мс. (1,00 видеокадр)
Время предзагрузки промежутка : 500 мс.






   Похожие торренты   Торрент   Размер 
В этой теме нет новых непрочитанных сообщений. Партия для чемпионки [01-02 из ?] (2013) DVDRip-AVC от New-Team | лицензия

50 | 9

2.18 ГБ

В этой теме нет новых непрочитанных сообщений. Партия для чемпионки [01-02 из ?] (2013) DVD9 R5 от New-Team | лицензия

6 | 6

7.32 ГБ

В этой теме нет новых непрочитанных сообщений. Партия для чемпионки [01-04 из 04] (2013) WEB-DLRip AVC от Generalfilm

161 | 13

2.19 ГБ

В этой теме нет новых непрочитанных сообщений. Партия для чемпионки / Сорокалетняя мамаша (2013) SATRip

6 | 1

1.94 ГБ

В этой теме нет новых непрочитанных сообщений. Партия для чемпионки (Сорокалетняя мамаша) [01-04 из 04] (2013) WEB-DLRip от MediaClub

151 | 78

1.89 ГБ

В этой теме нет новых непрочитанных сообщений. Партия для чемпионки / Сорокалетняя мамаша [01-04 из 04] (2013) HDTVRip 720p

30 | 6

5.38 ГБ

В этой теме нет новых непрочитанных сообщений. Партия для чемпионки (Сорокалетняя мамаша) [01-04 из 04] (2013) WEB-DL 1080p от MediaClub

123 | 93

5.16 ГБ




Вы не можете начинать темы
Вы не можете отвечать на сообщения
Вы не можете редактировать свои сообщения
Вы не можете удалять свои сообщения
Вы не можете добавлять вложения

Перейти:  
Для Мосгорсуда, Роскомнадзора и рекламодателей: mosgorsud-torrent[собачка]yandex.ru
 Вход
ppkBB3cker v.2 © 2008-2014 @ PPK
[ Time : 0.031s | 15 Queries | GZIP : Off ]

Торрент трекер RUTOR.IN, Не можете зайти на rutor.org? Какой новый адрес рутор? Какое зеркало рутор? Не работает rutor.org и зеркала? Тогда наш торрент специально для вас. Rutor.in неофициальное зеркало rutor. В случае если у Вас заблокирован rutor или вдруг Вы не можете на него зайти, то Вы без труда сможете скачать бесплатно и без рекламы последние новинки кино, игр, сериалов и прочего у нас, на Rutor.in. Не нужно использовать прокси, чтобы зайти на рутор, достаточно воспользоваться нашим ресурсом. Все новые фильмы, игры, сериалы, книги и музыка за 2013 и 2014 годы через торрент бесплатно. Скачивайте фильмы в хорошем качестве, игры для пк, xbox, playstation без регистрации. У нас вы найдете новые Зарубежные сериалы и Русские сериалы 2013, 2014, 2015 годов. Оставайтесь с нами, качайте любимые фильмы, игры, сериалы, книги и музыку.