img image001 image001 image001 image001 image001 image001 image001 image001 image001 image001 image001 image001 image001 image001 image001

Planets Sun Sun Sun
Статистика раздачи
Автор: Nickolas3434 | Размер: 2.18 ГБ | Добавлен: 23 мар 2014
Раздают: 50    Качают: 9
Скачать торрент
Скачать торрент
Описание торрента

СообщениеДобавлено: 23 мар 2014 


Страна: Россия / Про100 Фильм

Жанр: мелодрама
Год выпуска: 2013
Продолжительность: 01:25:10 + 01:26:20 (2 серии)

Перевод: Не требуется
Cубтитры: нет
Оригинальная аудиодорожка: русский

Режиссер: Роман Барабаш

В ролях: Ольга Зайцева, Евгений Воловенко, Джемал Тетруашвили, Сергей Загребнев, Алёна Яковлева, Владимир Носик, Татьяна Лянник, Олег Марусев, Нина Лощинина

Описание: Елене — 39, она специалист по рекламе, успешна, умна, прекрасно выглядит, ее карьера идет в гору, почти любые задачи по плечу! Мужчин вокруг «крутилось» всегда огромное количество. Но Лена — девушка серьезная и настроена больше на карьеру, нежели на личную жизнь. А мимолетные романы давно перестали радовать…
Словом, нет рядом мужчины, да и не очень нужно. Увлекательная работа полностью вытеснила личную жизнь. Гром среди ясного неба звучит в тот момент, когда врачи обнаружили застарелую болезнь по «женской» части. А ведь Елене еще чуть-чуть и - 40 лет! Вердикт категоричен: нужно срочно беременеть и рожать! В самые кратчайшие сроки!



Качество: DVDRip-AVC / DVD9 R5
Формат: MKV

Видео: 720x576@1024x576 (16:9), 25.000 fps, H264 ~ 1630 kbps avg, 0.157 bit/pixel
Аудио: 48 kHz, Dolby AC3, 2 ch, 192 kbps, русский

Раздача от:
Общее
Полное имя : Partiya.dlya.chempionki.2013.O.DVDRip-AVC_[New-Team]_by_avproh1.mkv
Формат : Matroska
Версия формата : Version 2
Размер файла : 1,08 Гбайт
Продолжительность : 1 ч. 25 м.
Общий поток : 1824 Кбит/сек
Дата кодирования : UTC 2014-03-22 11:18:14
Программа кодирования : mkvmerge v6.1.0 ('Old Devil') built on Mar 4 2013 09:10:42
Библиотека кодирования : libebml v1.3.0 + libmatroska v1.4.0

Видео
Идентификатор : 1
Формат : AVC
Формат/Информация : Advanced Video Codec
Профиль формата : High@L4.1
Параметр CABAC формата : Да
Параметр ReFrames формата : 6 кадров
Идентификатор кодека : V_MPEG4/ISO/AVC
Продолжительность : 1 ч. 25 м.
Битрейт : 1630 Кбит/сек
Ширина : 720 пикселей
Высота : 576 пикселей
Соотношение сторон : 16:9
Режим частоты кадров : Постоянный
Частота кадров : 25,000 кадров/сек
Стандарт вещания : PAL
Цветовое пространство : YUV
Субдискретизация насыщенности : 4:2:0
Битовая глубина : 8 бит
Тип развёртки : Прогрессивная
Бит/(Пиксели*Кадры) : 0.157
Размер потока : 972 Мбайт (87%)
Библиотека кодирования : x264 core 138 r2356 a1d3d17
Настройки программы : cabac=1 / ref=6 / deblock=1:-2:-1 / analyse=0x3:0x113 / me=umh / subme=10 / psy=1 / psy_rd=1.00:0.05 / mixed_ref=1 / me_range=32 / chroma_me=1 / trellis=2 / 8x8dct=1 / cqm=0 / deadzone=21,11 / fast_pskip=0 / chroma_qp_offset=-3 / threads=9 / lookahead_threads=1 / sliced_threads=0 / nr=0 / decimate=0 / interlaced=0 / bluray_compat=0 / constrained_intra=0 / bframes=8 / b_pyramid=2 / b_adapt=2 / b_bias=0 / direct=3 / weightb=1 / open_gop=0 / weightp=2 / keyint=250 / keyint_min=25 / scenecut=40 / intra_refresh=0 / rc=2pass / mbtree=0 / bitrate=1630 / ratetol=1.0 / qcomp=0.60 / qpmin=0 / qpmax=69 / qpstep=4 / cplxblur=20.0 / qblur=0.5 / ip_ratio=1.40 / pb_ratio=1.30 / aq=1:1.00
Default : Да
Forced : Нет

Аудио
Идентификатор : 2
Формат : AC-3
Формат/Информация : Audio Coding 3
Расширение режима : CM (complete main)
Параметр Endianness формата : Big
Идентификатор кодека : A_AC3
Продолжительность : 1 ч. 25 м.
Вид битрейта : Постоянный
Битрейт : 192 Кбит/сек
Каналы : 2 канала
Расположение каналов : Front: L R
Частота : 48,0 КГц
Битовая глубина : 16 бит
Метод сжатия : С потерями
Размер потока : 117 Мбайт (11%)
Default : Да
Forced : Нет





   Похожие торренты   Торрент   Размер 
В этой теме нет новых непрочитанных сообщений. Партия для чемпионки [01-02 из ?] (2013) DVDRip от New-Team | лицензия

52 | 14

2.19 ГБ

В этой теме нет новых непрочитанных сообщений. Партия для чемпионки [01-02 из ?] (2013) DVD9 R5 от New-Team | лицензия

6 | 6

7.32 ГБ

В этой теме нет новых непрочитанных сообщений. Партия для чемпионки [01-04 из 04] (2013) WEB-DLRip AVC от Generalfilm

161 | 13

2.19 ГБ

В этой теме нет новых непрочитанных сообщений. Партия для чемпионки / Сорокалетняя мамаша (2013) SATRip

6 | 1

1.94 ГБ

В этой теме нет новых непрочитанных сообщений. Партия для чемпионки / Сорокалетняя мамаша [01-04 из 04] (2013) HDTVRip 720p

30 | 6

5.38 ГБ

В этой теме нет новых непрочитанных сообщений. Партия для чемпионки (Сорокалетняя мамаша) [01-04 из 04] (2013) WEB-DL 1080p от MediaClub

123 | 93

5.16 ГБ

В этой теме нет новых непрочитанных сообщений. Партия для чемпионки (Сорокалетняя мамаша) [01-04 из 04] (2013) WEB-DLRip от MediaClub

151 | 78

1.89 ГБ




Вы не можете начинать темы
Вы не можете отвечать на сообщения
Вы не можете редактировать свои сообщения
Вы не можете удалять свои сообщения
Вы не можете добавлять вложения

Перейти:  
Для Мосгорсуда, Роскомнадзора и рекламодателей: mosgorsud-torrent[собачка]yandex.ru
 Вход
ppkBB3cker v.2 © 2008-2014 @ PPK
[ Time : 2.342s | 16 Queries | GZIP : Off ]

Торрент трекер RUTOR.IN, Не можете зайти на rutor.org? Какой новый адрес рутор? Какое зеркало рутор? Не работает rutor.org и зеркала? Тогда наш торрент специально для вас. Rutor.in неофициальное зеркало rutor. В случае если у Вас заблокирован rutor или вдруг Вы не можете на него зайти, то Вы без труда сможете скачать бесплатно и без рекламы последние новинки кино, игр, сериалов и прочего у нас, на Rutor.in. Не нужно использовать прокси, чтобы зайти на рутор, достаточно воспользоваться нашим ресурсом. Все новые фильмы, игры, сериалы, книги и музыка за 2013 и 2014 годы через торрент бесплатно. Скачивайте фильмы в хорошем качестве, игры для пк, xbox, playstation без регистрации. У нас вы найдете новые Зарубежные сериалы и Русские сериалы 2013, 2014, 2015 годов. Оставайтесь с нами, качайте любимые фильмы, игры, сериалы, книги и музыку.