img image001 image001 image001 image001 image001 image001 image001 image001 image001 image001 image001 image001 image001 image001 image001

Planets Sun Sun Sun
Статистика раздачи
Автор: Nickolas3434 | Размер: 315.33 МБ | Добавлен: 24 мар 2014
Раздают: 1550    Качают: 91
Скачать торрент
Скачать торрент
Описание торрента

СообщениеДобавлено: 24 мар 2014 


Информация о фильме
Название: Физрук
Год выпуска: 2014
Жанр: Комедия
Режиссеры: Фёдор Стуков, Сергей Сенцов
В ролях: Дмитрий Нагиев, Евгений Кулаков, Юрий Устюгов, Егор Пежемский, Валентин Юнин


Описание:
Сериал расскажет о начальнике охраны крупного бизнесмена, которого хозяин увольняет за устаревшие методы работы, приобретенные главным героем во время бурного бандитского прошлого. Новоиспеченный безработный и бывший начальник охраны устраивается физруком в школу, где учится сын его бывшего босса, в надежде наладить с ним отношения и вернуться на прежнюю работу.



Продолжительность: 01 ~00:25:00
Выпущено: Россия, ТНТ
Перевод: Не требуется
Файл
Формат: AVI
Качество: WEBRip
Видео: Xvid, 720x352, ~1 559 Kbps
Аудио: MP3, 128 Kbps

General
Format : AVI
Format/Info : Audio Video Interleave
File size : 7.96 MiB
Duration : 39s 680ms
Overall bit rate : 1 683 Kbps
Video
ID : 0
Format : MPEG-4 Visual
Format profile : Advanced Simple@L5
Format settings, BVOP : 2
Format settings, QPel : No
Format settings, GMC : No warppoints
Format settings, Matrix : Default (H.263)
Muxing mode : Packed bitstream
Codec ID : XVID
Codec ID/Hint : XviD
Duration : 39s 320ms
Bit rate : 1 559 Kbps
Width : 720 pixels
Height : 352 pixels
Display aspect ratio : 2.045
Frame rate : 25.000 fps
Color space : YUV
Chroma subsampling : 4:2:0
Bit depth : 8 bits
Scan type : Progressive
Compression mode : Lossy
Bits/(Pixel*Frame) : 0.246
Stream size : 7.31 MiB (92%)
Writing library : XviD 64
Audio
ID : 1
Format : MPEG Audio
Format version : Version 1
Format profile : Layer 3
Mode : Joint stereo
Mode extension : MS Stereo
Codec ID : 55
Codec ID/Hint : MP3
Duration : 39s 680ms
Bit rate mode : Constant
Bit rate : 128 Kbps
Channel(s) : 2 channels
Sampling rate : 48.0 KHz
Compression mode : Lossy
Delay relative to video : 12ms
Stream size : 620 KiB (8%)
Alignment : Split accross interleaves
Interleave, duration : 40 ms (0.99 video frame)






   Похожие торренты   Торрент   Размер 
В этой теме нет новых непрочитанных сообщений. Физрук [01x01-06] (2014) DVB

128 | 242

4.01 ГБ

В этой теме нет новых непрочитанных сообщений. Физрук [01x01-05] (2014) DVB

107 | 174

3.4 ГБ

В этой теме нет новых непрочитанных сообщений. Физрук [01x01-12] (2014) DVB

459 | 344

8.95 ГБ

В этой теме нет новых непрочитанных сообщений. Физрук [01x01-08] (2014) DVB

183 | 361

5.34 ГБ

В этой теме нет новых непрочитанных сообщений. Физрук [01x01-04] (2014) DVB

176 | 152

2.82 ГБ

В этой теме нет новых непрочитанных сообщений. Физрук [01x01-17] (2014) DVB

44 | 27

13.34 ГБ

В этой теме нет новых непрочитанных сообщений. Физрук [01x01-13] (2014) SATRip

1949 | 5695

3.91 ГБ




Вы не можете начинать темы
Вы не можете отвечать на сообщения
Вы не можете редактировать свои сообщения
Вы не можете удалять свои сообщения
Вы не можете добавлять вложения

Перейти:  
Для Мосгорсуда, Роскомнадзора и рекламодателей: mosgorsud-torrent[собачка]yandex.ru
 Вход
ppkBB3cker v.2 © 2008-2014 @ PPK
[ Time : 0.068s | 15 Queries | GZIP : Off ]

Торрент трекер RUTOR.IN, Не можете зайти на rutor.org? Какой новый адрес рутор? Какое зеркало рутор? Не работает rutor.org и зеркала? Тогда наш торрент специально для вас. Rutor.in неофициальное зеркало rutor. В случае если у Вас заблокирован rutor или вдруг Вы не можете на него зайти, то Вы без труда сможете скачать бесплатно и без рекламы последние новинки кино, игр, сериалов и прочего у нас, на Rutor.in. Не нужно использовать прокси, чтобы зайти на рутор, достаточно воспользоваться нашим ресурсом. Все новые фильмы, игры, сериалы, книги и музыка за 2013 и 2014 годы через торрент бесплатно. Скачивайте фильмы в хорошем качестве, игры для пк, xbox, playstation без регистрации. У нас вы найдете новые Зарубежные сериалы и Русские сериалы 2013, 2014, 2015 годов. Оставайтесь с нами, качайте любимые фильмы, игры, сериалы, книги и музыку.
cron