img image001 image001 image001 image001 image001 image001 image001 image001 image001 image001 image001 image001 image001 image001 image001

Planets Sun Sun Sun
Статистика раздачи
Автор: Nickolas3434 | Размер: 4.29 ГБ | Добавлен: 29 мар 2014
Раздают: 372    Качают: 209
Скачать торрент
Скачать торрент
Описание торрента

СообщениеДобавлено: 29 мар 2014 

Информация о фильме
Название: Гетеры майора Соколова
Год выхода: 2014
Жанр: Драма
Режиссер: Бахтияр Худойназаров
В ролях: Андрей Панин, Сергей Гармаш, Артур Смольянинов, Филипп Янковский, Татьяна Лютаева, Дарья Мельникова, Аглая Тарасова, Мария Антонова (II), Анастасия Микульчина, Алиса Горшкова, Оксана Базилевич, Юлиана Ромашина (Оррен), Анатолий Гущин, Олег Флеер, Сергей Тэсслер (VII), Дмитрий Поднозов, Олег Тилькин

О фильме:
Сентябрь 1939 года. Начало Второй Мировой войны. В Крым приезжает майор советской разведки Соколов. Его главная цель – выявить агентурную сеть террористической антисоветской организации РОВС. Руководит контрразведкой Русского общевоинского союза - штабс-капитан Семенов, псевдоним Крест. Крест и Соколов – давние враги. Белые офицеры, в 1917 году они оказались по разные стороны баррикад. Они прекрасно знают друг друга в лицо, хотели бы и не один раз могли бы убить друг друга, но каждому из них нужна гибель системы, которую представляет противник. Оба – азартные игроки - они начинают сложную партию, в которой шансы на победу почти равны. Каждый из них готов жертвовать любыми фигурами, включая себя, ведь на кону - Родина. Одна. Но для каждого своя…



Выпущено: Россия, "Марс Медиа"
Продолжительность: 8 x ~ 00:48:00
Перевод: Не требуется

Файл
Формат: MKV
Качество: HDTVRip-AVC
Видео: AVC, ~ 1450 Кбит/с, 896x504
Аудио: AC3, 2 ch, 128 Кбит/с



General
Unique ID : 253520801797296407377848256100151777085 (0xBEBA54932BB65C9BA0EBAA06EABED73D)
Complete name : F:СериалGetery.majora.Sokolova.2014.HDTVRip-AVCGetery.Majora.Sokolova.08.(2014).HDTVRip-AVC.[-=DoMiNo=-].mkv
Format : Matroska
Format version : Version 4 / Version 2
File size : 548 MiB
Duration : 49mn 39s
Overall bit rate : 1 544 Kbps
Encoded date : UTC 2014-03-28 15:46:18
Writing application : mkvmerge v6.8.0 ('Theme for Great Cities') 64bit built on Mar 2 2014 21:34:26
Writing library : libebml v1.3.0 + libmatroska v1.4.1

Video
ID : 1
Format : AVC
Format/Info : Advanced Video Codec
Format profile : High@L4.1
Format settings, CABAC : Yes
Format settings, ReFrames : 8 frames
Codec ID : V_MPEG4/ISO/AVC
Duration : 49mn 39s
Bit rate : 1 414 Kbps
Width : 896 pixels
Height : 504 pixels
Display aspect ratio : 16:9
Frame rate mode : Constant
Frame rate : 25.000 fps
Color space : YUV
Chroma subsampling : 4:2:0
Bit depth : 8 bits
Scan type : Progressive
Bits/(Pixel*Frame) : 0.125
Stream size : 492 MiB (90%)
Writing library : x264 core 130 r2273 b3065e6
Encoding settings : cabac=1 / ref=8 / deblock=1:-3:-3 / analyse=0x3:0x133 / me=umh / subme=11 / psy=1 / psy_rd=1.00:0.20 / mixed_ref=1 / me_range=32 / chroma_me=1 / trellis=2 / 8x8dct=1 / cqm=0 / deadzone=21,11 / fast_pskip=0 / chroma_qp_offset=-6 / threads=16 / lookahead_threads=4 / sliced_threads=0 / slices=4 / nr=0 / decimate=1 / interlaced=0 / bluray_compat=0 / constrained_intra=0 / bframes=10 / b_pyramid=2 / b_adapt=2 / b_bias=0 / direct=3 / weightb=1 / open_gop=0 / weightp=2 / keyint=240 / keyint_min=23 / scenecut=40 / intra_refresh=0 / rc_lookahead=50 / rc=2pass / mbtree=1 / bitrate=1414 / ratetol=1.0 / qcomp=0.60 / qpmin=10 / qpmax=51 / qpstep=4 / cplxblur=20.0 / qblur=0.5 / ip_ratio=1.40 / aq=1:1.50
Default : Yes
Forced : No

Audio
ID : 2
Format : AC-3
Format/Info : Audio Coding 3
Mode extension : CM (complete main)
Format settings, Endianness : Big
Codec ID : A_AC3
Duration : 49mn 39s
Bit rate mode : Constant
Bit rate : 128 Kbps
Channel(s) : 2 channels
Channel positions : Front: L R
Sampling rate : 48.0 KHz
Bit depth : 16 bits
Compression mode : Lossy
Stream size : 45.5 MiB (8%)
Language : Russian
Default : Yes
Forced : No





   Похожие торренты   Торрент   Размер 
В этой теме нет новых непрочитанных сообщений. Гетеры майора Соколова [01-06 из 08] (2014) HDTVRip от New-Team

8 | 10

3.95 ГБ

В этой теме нет новых непрочитанных сообщений. Гетеры майора Соколова [01-08 из 08] (2014) HDTVRip от New-Team

403 | 208

5.3 ГБ

В этой теме нет новых непрочитанных сообщений. Гетеры майора Соколова [01-08 из 08] (2014) HDTVRip-AVC от New-Team

155 | 182

5.81 ГБ

В этой теме нет новых непрочитанных сообщений. Гетеры майора Соколова [01-06 из 08] (2014) HDTVRip-AVC от New-Team

34 | 15

4.33 ГБ

В этой теме нет новых непрочитанных сообщений. Гетеры майора Соколова [01-08 из 08] (2014) WEB-DLRip

1544 | 656

3.1 ГБ

В этой теме нет новых непрочитанных сообщений. Гетеры майора Соколова [01-04 из 08] (2014) WEB-DLRip

299 | 163

1.53 ГБ

В этой теме нет новых непрочитанных сообщений. Гетеры майора Соколова [01-08 из 08] (2014) WEB-DLRip-AVC от ExKinoRay

1000 | 1437

5.92 ГБ




Вы не можете начинать темы
Вы не можете отвечать на сообщения
Вы не можете редактировать свои сообщения
Вы не можете удалять свои сообщения
Вы не можете добавлять вложения

Перейти:  
Для Мосгорсуда, Роскомнадзора и рекламодателей: mosgorsud-torrent[собачка]yandex.ru
 Вход
ppkBB3cker v.2 © 2008-2014 @ PPK
[ Time : 0.056s | 16 Queries | GZIP : Off ]

Торрент трекер RUTOR.IN, Не можете зайти на rutor.org? Какой новый адрес рутор? Какое зеркало рутор? Не работает rutor.org и зеркала? Тогда наш торрент специально для вас. Rutor.in неофициальное зеркало rutor. В случае если у Вас заблокирован rutor или вдруг Вы не можете на него зайти, то Вы без труда сможете скачать бесплатно и без рекламы последние новинки кино, игр, сериалов и прочего у нас, на Rutor.in. Не нужно использовать прокси, чтобы зайти на рутор, достаточно воспользоваться нашим ресурсом. Все новые фильмы, игры, сериалы, книги и музыка за 2013 и 2014 годы через торрент бесплатно. Скачивайте фильмы в хорошем качестве, игры для пк, xbox, playstation без регистрации. У нас вы найдете новые Зарубежные сериалы и Русские сериалы 2013, 2014, 2015 годов. Оставайтесь с нами, качайте любимые фильмы, игры, сериалы, книги и музыку.
cron