img image001 image001 image001 image001 image001 image001 image001 image001 image001 image001 image001 image001 image001 image001 image001

Planets Sun Sun Sun
Статистика раздачи
Автор: Nickolas3434 | Размер: 6.68 ГБ | Добавлен: 31 мар 2014
Раздают: 369    Качают: 138
Скачать торрент
Скачать торрент
Описание торрента

СообщениеДобавлено: 31 мар 2014 

«Федор Добронравов - не сват, а брат!»




Страна: Россия

Жанр: комедия
Год выпуска: 2013
Продолжительность: 00:44:00 / серия

Перевод: Не требуется
Cубтитры: нет
Оригинальная аудиодорожка: русский

Режиссер: Александр Жигалкин

В ролях: Федор Добронравов, Мария Аронова, Борис Клюев, Елена Шевченко, Сергей Беляев, Мария Горбань, Карэн Бадалов, Олег Кассин, Галина Петрова, Виктор Добронравов...

Описание: Валерий Перечихин — фигура большого масштаба, владелец крупной дорожно-строительной компании, консультант Общественного Совета при Комиссии Госдумы по транспорту, известный благотворительностью и выступлениями по телевизору. Моложав, гладко выбрит, хорошо одет.
Федор Перечихин — брат-близнец Валерия, человек добрый, но слабый, выпивает, часто меняет работу, разведён, имеет срок за утопленный трактор и живет на поселении в пяти километрах от отцовского дома. Щетинист, лысоват, плохо выглядит.
Два брата-близнеца после тридцатилетней разлуки встречаются на родине, в глухом селе, на похоронах отца, который когда-то выгнал Валерия из дома. После похорон братья крепко выпивают, ссорятся и дерутся.
На утро по стечению обстоятельств они меняются местами: московский бизнесмен попадает на поселение, а его сельский брат-близнец отправляется в Москву. Эта рокировка влечет за собой перемены не только в них, но и в их ближайшем окружении.



Качество: DVDRip / 2 x DVD9 R5
Формат: AVI

Видео: 720x400 (16:9), 25.000 fps, XviD ~ 2000 kbps avg, 0.278 bit/pixel
Аудио: 48 kHz, Dolby AC3, 2 ch, 128 kbps, русский

Раздача от:

Общее
Полное имя : Bratya.po.obmenu.2013.DVDRip_[New-Team]_by_avproh1.avi
Формат : AVI
Формат/Информация : Audio Video Interleave
Размер файла : 676 Мбайт
Продолжительность : 44 м.
Общий поток : 2137 Кбит/сек
Программа кодирования : VirtualDubMod 1.5.10.3 | www.virtualdub-fr.org || (build 2550/release)
Библиотека кодирования : VirtualDubMod build 2550/release

Видео
Идентификатор : 0
Формат : MPEG-4 Visual
Профиль формата : Advanced Simple@L5
Параметр BVOP формата : 1
Параметр QPel формата : Нет
Параметр GMC формата : Без точки перехода
Параметр матрицы формата : Выборочная
Идентификатор кодека : XVID
Идентификатор кодека/Подсказка : XviD
Продолжительность : 44 м.
Битрейт : 2000 Кбит/сек
Ширина : 720 пикселей
Высота : 400 пикселей
Соотношение сторон : 16:9
Частота кадров : 25,000 кадров/сек
Цветовое пространство : YUV
Субдискретизация насыщенности : 4:2:0
Битовая глубина : 8 бит
Тип развёртки : Прогрессивная
Метод сжатия : С потерями
Бит/(Пиксели*Кадры) : 0.278
Размер потока : 632 Мбайт (94%)
Библиотека кодирования : XviD 73

Аудио
Идентификатор : 1
Формат : AC-3
Формат/Информация : Audio Coding 3
Расширение режима : CM (complete main)
Параметр Endianness формата : Big
Идентификатор кодека : 2000
Продолжительность : 44 м.
Вид битрейта : Постоянный
Битрейт : 128 Кбит/сек
Каналы : 2 канала
Расположение каналов : Front: L R
Частота : 48,0 КГц
Битовая глубина : 16 бит
Метод сжатия : С потерями
Размер потока : 40,5 Мбайт (6%)
Выравнивание : Разделение по промежуткам
Продолжительность промежутка : 40 мс. (1,00 видеокадр)
Время предзагрузки промежутка : 500 мс.





   Похожие торренты   Торрент   Размер 
В этой теме нет новых непрочитанных сообщений. Братья по обмену [01-10 из 10] (2013) DVDRip-AVC от New-Team | лицензия

195 | 149

6.67 ГБ

В этой теме нет новых непрочитанных сообщений. Братья по обмену [01-10 из 10] (2013) 2xDVD9 R5 от New-Team | лицензия

19 | 32

14.29 ГБ

В этой теме нет новых непрочитанных сообщений. Братья по обмену [01-10 из 10] (2013) DVB от MediaClub | КПК

82 | 22

2.76 ГБ

В этой теме нет новых непрочитанных сообщений. Братья по обмену [01-10 из 10] (2013) SATRip

264 | 30

5.01 ГБ

В этой теме нет новых непрочитанных сообщений. Братья по обмену [01-10 из 10] (2013) SATRip | КПК | mp4

37 | 9

1.95 ГБ

В этой теме нет новых непрочитанных сообщений. Братья по обмену [1-10 из 10 серий] (2013) DVB

30 | 6

8.46 ГБ

В этой теме нет новых непрочитанных сообщений. Братья по обмену [01-10 из 10] (2013) WEB-DLRip от HitWay

43 | 13

5.33 ГБ




Вы не можете начинать темы
Вы не можете отвечать на сообщения
Вы не можете редактировать свои сообщения
Вы не можете удалять свои сообщения
Вы не можете добавлять вложения

Перейти:  
Для Мосгорсуда, Роскомнадзора и рекламодателей: mosgorsud-torrent[собачка]yandex.ru
 Вход
ppkBB3cker v.2 © 2008-2014 @ PPK
[ Time : 0.070s | 17 Queries | GZIP : Off ]

Торрент трекер RUTOR.IN, Не можете зайти на rutor.org? Какой новый адрес рутор? Какое зеркало рутор? Не работает rutor.org и зеркала? Тогда наш торрент специально для вас. Rutor.in неофициальное зеркало rutor. В случае если у Вас заблокирован rutor или вдруг Вы не можете на него зайти, то Вы без труда сможете скачать бесплатно и без рекламы последние новинки кино, игр, сериалов и прочего у нас, на Rutor.in. Не нужно использовать прокси, чтобы зайти на рутор, достаточно воспользоваться нашим ресурсом. Все новые фильмы, игры, сериалы, книги и музыка за 2013 и 2014 годы через торрент бесплатно. Скачивайте фильмы в хорошем качестве, игры для пк, xbox, playstation без регистрации. У нас вы найдете новые Зарубежные сериалы и Русские сериалы 2013, 2014, 2015 годов. Оставайтесь с нами, качайте любимые фильмы, игры, сериалы, книги и музыку.