img image001 image001 image001 image001 image001 image001 image001 image001 image001 image001 image001 image001 image001 image001 image001

Planets Sun Sun Sun
Статистика раздачи
Автор: Nickolas3434 | Размер: 6.67 ГБ | Добавлен: 31 мар 2014
Раздают: 195    Качают: 149
Скачать торрент
Скачать торрент
Описание торрента

СообщениеДобавлено: 31 мар 2014 

«Федор Добронравов - не сват, а брат!»




Страна: Россия

Жанр: комедия
Год выпуска: 2013
Продолжительность: 00:44:00 / серия

Перевод: Не требуется
Cубтитры: нет
Оригинальная аудиодорожка: русский

Режиссер: Александр Жигалкин

В ролях: Федор Добронравов, Мария Аронова, Борис Клюев, Елена Шевченко, Сергей Беляев, Мария Горбань, Карэн Бадалов, Олег Кассин, Галина Петрова, Виктор Добронравов...

Описание: Валерий Перечихин — фигура большого масштаба, владелец крупной дорожно-строительной компании, консультант Общественного Совета при Комиссии Госдумы по транспорту, известный благотворительностью и выступлениями по телевизору. Моложав, гладко выбрит, хорошо одет.
Федор Перечихин — брат-близнец Валерия, человек добрый, но слабый, выпивает, часто меняет работу, разведён, имеет срок за утопленный трактор и живет на поселении в пяти километрах от отцовского дома. Щетинист, лысоват, плохо выглядит.
Два брата-близнеца после тридцатилетней разлуки встречаются на родине, в глухом селе, на похоронах отца, который когда-то выгнал Валерия из дома. После похорон братья крепко выпивают, ссорятся и дерутся.
На утро по стечению обстоятельств они меняются местами: московский бизнесмен попадает на поселение, а его сельский брат-близнец отправляется в Москву. Эта рокировка влечет за собой перемены не только в них, но и в их ближайшем окружении.



Качество: DVDRip-AVC / 2 x DVD9 R5
Формат: MKV

Видео: 720x576@1024x576 (16:9), 25.000 fps, H264 ~ 2006 kbps avg, 0.193 bit/pixel
Аудио: 48 kHz, Dolby AC3, 2 ch, 128 kbps, русский

Раздача от:

Общее
Полное имя : Bratya.po.obmenu.2013.DVDRip-AVC_[New-Team]_by_avproh1.mkv
Формат : Matroska
Версия формата : Version 2
Размер файла : 675 Мбайт
Продолжительность : 44 м.
Общий поток : 2135 Кбит/сек
Дата кодирования : UTC 2014-03-30 07:15:51
Программа кодирования : mkvmerge v6.1.0 ('Old Devil') built on Mar 4 2013 09:10:42
Библиотека кодирования : libebml v1.3.0 + libmatroska v1.4.0

Видео
Идентификатор : 1
Формат : AVC
Формат/Информация : Advanced Video Codec
Профиль формата : High@L4.1
Параметр CABAC формата : Да
Параметр ReFrames формата : 6 кадров
Идентификатор кодека : V_MPEG4/ISO/AVC
Продолжительность : 44 м.
Битрейт : 2006 Кбит/сек
Ширина : 720 пикселей
Высота : 576 пикселей
Соотношение сторон : 16:9
Режим частоты кадров : Постоянный
Частота кадров : 25,000 кадров/сек
Стандарт вещания : PAL
Цветовое пространство : YUV
Субдискретизация насыщенности : 4:2:0
Битовая глубина : 8 бит
Тип развёртки : Прогрессивная
Бит/(Пиксели*Кадры) : 0.193
Размер потока : 621 Мбайт (92%)
Библиотека кодирования : x264 core 138 r2356 a1d3d17
Настройки программы : cabac=1 / ref=6 / deblock=1:-2:-1 / analyse=0x3:0x113 / me=umh / subme=10 / psy=1 / psy_rd=1.00:0.05 / mixed_ref=1 / me_range=32 / chroma_me=1 / trellis=2 / 8x8dct=1 / cqm=0 / deadzone=21,11 / fast_pskip=0 / chroma_qp_offset=-3 / threads=9 / lookahead_threads=1 / sliced_threads=0 / nr=0 / decimate=0 / interlaced=0 / bluray_compat=0 / constrained_intra=0 / bframes=8 / b_pyramid=2 / b_adapt=2 / b_bias=0 / direct=3 / weightb=1 / open_gop=0 / weightp=2 / keyint=250 / keyint_min=25 / scenecut=40 / intra_refresh=0 / rc=2pass / mbtree=0 / bitrate=2006 / ratetol=1.0 / qcomp=0.60 / qpmin=0 / qpmax=69 / qpstep=4 / cplxblur=20.0 / qblur=0.5 / ip_ratio=1.40 / pb_ratio=1.30 / aq=1:1.00
Default : Да
Forced : Нет

Аудио
Идентификатор : 2
Формат : AC-3
Формат/Информация : Audio Coding 3
Расширение режима : CM (complete main)
Параметр Endianness формата : Big
Идентификатор кодека : A_AC3
Продолжительность : 44 м.
Вид битрейта : Постоянный
Битрейт : 128 Кбит/сек
Каналы : 2 канала
Расположение каналов : Front: L R
Частота : 48,0 КГц
Битовая глубина : 16 бит
Метод сжатия : С потерями
Размер потока : 40,5 Мбайт (6%)
Default : Да
Forced : Нет





   Похожие торренты   Торрент   Размер 
В этой теме нет новых непрочитанных сообщений. Братья по обмену [01-10 из 10] (2013) DVDRip от New-Team | лицензия

369 | 138

6.68 ГБ

В этой теме нет новых непрочитанных сообщений. Братья по обмену [01-10 из 10] (2013) 2xDVD9 R5 от New-Team | лицензия

19 | 32

14.29 ГБ

В этой теме нет новых непрочитанных сообщений. Братья по обмену [01-10 из 10] (2013) SATRip

264 | 30

5.01 ГБ

В этой теме нет новых непрочитанных сообщений. Братья по обмену [01-10 из 10] (2013) DVB от MediaClub | КПК

82 | 22

2.76 ГБ

В этой теме нет новых непрочитанных сообщений. Братья по обмену [01-10 из 10] (2013) SATRip | КПК | mp4

37 | 9

1.95 ГБ

В этой теме нет новых непрочитанных сообщений. Братья по обмену [1-10 из 10 серий] (2013) DVB

30 | 6

8.46 ГБ

В этой теме нет новых непрочитанных сообщений. Братья по обмену [01-10 из 10] (2013) WEB-DLRip от HitWay

43 | 13

5.33 ГБ




Вы не можете начинать темы
Вы не можете отвечать на сообщения
Вы не можете редактировать свои сообщения
Вы не можете удалять свои сообщения
Вы не можете добавлять вложения

Перейти:  
Для Мосгорсуда, Роскомнадзора и рекламодателей: mosgorsud-torrent[собачка]yandex.ru
 Вход
ppkBB3cker v.2 © 2008-2014 @ PPK
[ Time : 0.037s | 17 Queries | GZIP : Off ]

Торрент трекер RUTOR.IN, Не можете зайти на rutor.org? Какой новый адрес рутор? Какое зеркало рутор? Не работает rutor.org и зеркала? Тогда наш торрент специально для вас. Rutor.in неофициальное зеркало rutor. В случае если у Вас заблокирован rutor или вдруг Вы не можете на него зайти, то Вы без труда сможете скачать бесплатно и без рекламы последние новинки кино, игр, сериалов и прочего у нас, на Rutor.in. Не нужно использовать прокси, чтобы зайти на рутор, достаточно воспользоваться нашим ресурсом. Все новые фильмы, игры, сериалы, книги и музыка за 2013 и 2014 годы через торрент бесплатно. Скачивайте фильмы в хорошем качестве, игры для пк, xbox, playstation без регистрации. У нас вы найдете новые Зарубежные сериалы и Русские сериалы 2013, 2014, 2015 годов. Оставайтесь с нами, качайте любимые фильмы, игры, сериалы, книги и музыку.