img image001 image001 image001 image001 image001 image001 image001 image001 image001 image001 image001 image001 image001 image001 image001

Planets Sun Sun Sun
Статистика раздачи
Автор: Nickolas3434 | Размер: 6.53 ГБ | Добавлен: 01 апр 2014
Раздают: 268    Качают: 268
Скачать торрент
Скачать торрент
Описание торрента

СообщениеДобавлено: 01 апр 2014 


Страна: Россия / Yellow, Black & White
Жанр: комедия
Год выпуска: 2013
Продолжительность: 00:24:00 / серия

Перевод: Не требуется
Cубтитры: нет
Оригинальная аудиодорожка: русский

Режиссер: Радда Новикова

В ролях: Дмитрий Нагиев, Максим Студеновский, Илья Костюков, Виктория Лукина, Анна Якунина, Галина Петрова, Виктория Чернышёва, Александр Воронков, Юрий Панов, Михаил Данилин...

Описание: Павел Гуров — успешный актер, звезда телевизионного сериала «Майор Лавров». В жизни Гуров состоявшийся человек, состоятельный Казанова, который прожигает жизнь ради собственных удовольствий.
Всё меняется, когда на пороге его элитной квартиры появляется Виктор — сын, которого Павел бросил 20 лет назад, уехав в Москву строить свою актерскую карьеру. Виктор приезжает вместе с внуком Владом, которого Павел вообще никогда не видел. Виктор — полная противоположность Павла: неудачник, зануда, однолюб. Влад — смышлёный, инициативный мальчик.
Виктор стремится в Москву вслед за своей женой, которая бросила их с Владом в Брянске, уехав в столицу с мечтами стать актрисой. Виктор уверен, что за пару дней убедит жену вернуться в семью, и они вместе вернутся в Брянск. Но в силу обстоятельств Вите приходится задержаться, и Павел Гуров неожиданно для себя становится и отцом, и дедом.



Качество: DVDRip / 2 x DVD9 R5
Формат: AVI

Видео: 720x400 (16:9), 25.000 fps, XviD ~ 1800 kbps avg, 0.250 bit/pixel
Аудио: 48 kHz, Dolby AC3, 2 ch, 128 kbps, русский

Раздача от:

Общее
Полное имя : Dva.otsa.i.dva.syna.2013.O.DVDRip_[New-Team]_by_avproh\01.avi
Формат : AVI
Формат/Информация : Audio Video Interleave
Размер файла : 342 Мбайт
Продолжительность : 24 м.
Общий поток : 1938 Кбит/сек
Программа кодирования : VirtualDubMod 1.5.10.3 | www.virtualdub-fr.org || (build 2550/release)
Библиотека кодирования : VirtualDubMod build 2550/release

Видео
Идентификатор : 0
Формат : MPEG-4 Visual
Профиль формата : Advanced Simple@L5
Параметр BVOP формата : 1
Параметр QPel формата : Нет
Параметр GMC формата : Без точки перехода
Параметр матрицы формата : Выборочная
Идентификатор кодека : XVID
Идентификатор кодека/Подсказка : XviD
Продолжительность : 24 м.
Битрейт : 1801 Кбит/сек
Ширина : 720 пикселей
Высота : 400 пикселей
Соотношение сторон : 16:9
Частота кадров : 25,000 кадров/сек
Цветовое пространство : YUV
Субдискретизация насыщенности : 4:2:0
Битовая глубина : 8 бит
Тип развёртки : Прогрессивная
Метод сжатия : С потерями
Бит/(Пиксели*Кадры) : 0.250
Размер потока : 317 Мбайт (93%)
Библиотека кодирования : XviD 73

Аудио
Идентификатор : 1
Формат : AC-3
Формат/Информация : Audio Coding 3
Расширение режима : CM (complete main)
Параметр Endianness формата : Big
Идентификатор кодека : 2000
Продолжительность : 24 м.
Вид битрейта : Постоянный
Битрейт : 128 Кбит/сек
Каналы : 2 канала
Расположение каналов : Front: L R
Частота : 48,0 КГц
Битовая глубина : 16 бит
Метод сжатия : С потерями
Размер потока : 22,6 Мбайт (7%)
Выравнивание : Разделение по промежуткам
Продолжительность промежутка : 40 мс. (1,00 видеокадр)
Время предзагрузки промежутка : 500 мс.






   Похожие торренты   Торрент   Размер 
В этой теме нет новых непрочитанных сообщений. Два отца и два сына [01-20 из 20] (2013) DVDRip-AVC от New-Team | лицензия

96 | 83

6.52 ГБ

В этой теме нет новых непрочитанных сообщений. Два отца и два сына [01-20 из 20] (2013) 2xDVD9 R5 от New-Team | лицензия

21 | 32

15.15 ГБ

В этой теме нет новых непрочитанных сообщений. Два отца и два сына [01-20 из 20] (2013) WEBRip-AVC

20 | 7

7.8 ГБ

В этой теме нет новых непрочитанных сообщений. Два отца и два сына [S01-02] (2013) WEB-DLRip от HitWay

259 | 181

11.56 ГБ

В этой теме нет новых непрочитанных сообщений. Два отца и два сына [01-20 из 20] (2013) WEB-DLRip от HitWay

3 | 6

5.75 ГБ

В этой теме нет новых непрочитанных сообщений. Сын отца народов [01x01-12 из 12] (2013) DVDRip от New-Team | лицензия

59 | 70

8.74 ГБ

В этой теме нет новых непрочитанных сообщений. Сын отца народов [01x01-12 из 12] (2013) DVDRip-AVC от New-Team | лицензия

49 | 10

8.75 ГБ




Вы не можете начинать темы
Вы не можете отвечать на сообщения
Вы не можете редактировать свои сообщения
Вы не можете удалять свои сообщения
Вы не можете добавлять вложения

Перейти:  
Для Мосгорсуда, Роскомнадзора и рекламодателей: mosgorsud-torrent[собачка]yandex.ru
 Вход
ppkBB3cker v.2 © 2008-2014 @ PPK
[ Time : 0.054s | 17 Queries | GZIP : Off ]

Торрент трекер RUTOR.IN, Не можете зайти на rutor.org? Какой новый адрес рутор? Какое зеркало рутор? Не работает rutor.org и зеркала? Тогда наш торрент специально для вас. Rutor.in неофициальное зеркало rutor. В случае если у Вас заблокирован rutor или вдруг Вы не можете на него зайти, то Вы без труда сможете скачать бесплатно и без рекламы последние новинки кино, игр, сериалов и прочего у нас, на Rutor.in. Не нужно использовать прокси, чтобы зайти на рутор, достаточно воспользоваться нашим ресурсом. Все новые фильмы, игры, сериалы, книги и музыка за 2013 и 2014 годы через торрент бесплатно. Скачивайте фильмы в хорошем качестве, игры для пк, xbox, playstation без регистрации. У нас вы найдете новые Зарубежные сериалы и Русские сериалы 2013, 2014, 2015 годов. Оставайтесь с нами, качайте любимые фильмы, игры, сериалы, книги и музыку.
cron