img image001 image001 image001 image001 image001 image001 image001 image001 image001 image001 image001 image001 image001 image001 image001

Planets Sun Sun Sun
Статистика раздачи
Автор: Nickolas3434 | Размер: 6.52 ГБ | Добавлен: 01 апр 2014
Раздают: 110    Качают: 105
Скачать торрент
Скачать торрент
Описание торрента

СообщениеДобавлено: 01 апр 2014 


Страна: Россия / Yellow, Black & White
Жанр: комедия
Год выпуска: 2013
Продолжительность: 00:24:00 / серия

Перевод: Не требуется
Cубтитры: нет
Оригинальная аудиодорожка: русский

Режиссер: Радда Новикова

В ролях: Дмитрий Нагиев, Максим Студеновский, Илья Костюков, Виктория Лукина, Анна Якунина, Галина Петрова, Виктория Чернышёва, Александр Воронков, Юрий Панов, Михаил Данилин...

Описание: Павел Гуров — успешный актер, звезда телевизионного сериала «Майор Лавров». В жизни Гуров состоявшийся человек, состоятельный Казанова, который прожигает жизнь ради собственных удовольствий.
Всё меняется, когда на пороге его элитной квартиры появляется Виктор — сын, которого Павел бросил 20 лет назад, уехав в Москву строить свою актерскую карьеру. Виктор приезжает вместе с внуком Владом, которого Павел вообще никогда не видел. Виктор — полная противоположность Павла: неудачник, зануда, однолюб. Влад — смышлёный, инициативный мальчик.
Виктор стремится в Москву вслед за своей женой, которая бросила их с Владом в Брянске, уехав в столицу с мечтами стать актрисой. Виктор уверен, что за пару дней убедит жену вернуться в семью, и они вместе вернутся в Брянск. Но в силу обстоятельств Вите приходится задержаться, и Павел Гуров неожиданно для себя становится и отцом, и дедом.



Качество: DVDRip-AVC / 2 x DVD9 R5
Формат: MKV

Видео: 720x572@1024x572 (16:9), 25.000 fps, H264 ~ 1806 kbps avg, 0.175 bit/pixel
Аудио: 48 kHz, Dolby AC3, 2 ch, 128 kbps, русский

Раздача от:

Общее
Полное имя : Dva.otsa.i.dva.syna.2013.O.DVDRip-AVC_[New-Team]_by_avproh1.mkv
Формат : Matroska
Версия формата : Version 2
Размер файла : 341 Мбайт
Продолжительность : 24 м.
Общий поток : 1935 Кбит/сек
Дата кодирования : UTC 2014-03-31 07:33:11
Программа кодирования : mkvmerge v6.1.0 ('Old Devil') built on Mar 4 2013 09:10:42
Библиотека кодирования : libebml v1.3.0 + libmatroska v1.4.0

Видео
Идентификатор : 1
Формат : AVC
Формат/Информация : Advanced Video Codec
Профиль формата : High@L4.1
Параметр CABAC формата : Да
Параметр ReFrames формата : 6 кадров
Идентификатор кодека : V_MPEG4/ISO/AVC
Продолжительность : 24 м.
Битрейт : 1806 Кбит/сек
Ширина : 720 пикселей
Высота : 572 пикселя
Соотношение сторон : 16:9
Режим частоты кадров : Постоянный
Частота кадров : 25,000 кадров/сек
Цветовое пространство : YUV
Субдискретизация насыщенности : 4:2:0
Битовая глубина : 8 бит
Тип развёртки : Прогрессивная
Бит/(Пиксели*Кадры) : 0.175
Размер потока : 312 Мбайт (91%)
Библиотека кодирования : x264 core 138 r2356 a1d3d17
Настройки программы : cabac=1 / ref=6 / deblock=1:-2:-1 / analyse=0x3:0x113 / me=umh / subme=10 / psy=1 / psy_rd=1.00:0.05 / mixed_ref=1 / me_range=32 / chroma_me=1 / trellis=2 / 8x8dct=1 / cqm=0 / deadzone=21,11 / fast_pskip=0 / chroma_qp_offset=-3 / threads=9 / lookahead_threads=1 / sliced_threads=0 / nr=0 / decimate=0 / interlaced=0 / bluray_compat=0 / constrained_intra=0 / bframes=8 / b_pyramid=2 / b_adapt=2 / b_bias=0 / direct=3 / weightb=1 / open_gop=0 / weightp=2 / keyint=250 / keyint_min=25 / scenecut=40 / intra_refresh=0 / rc=2pass / mbtree=0 / bitrate=1806 / ratetol=1.0 / qcomp=0.60 / qpmin=0 / qpmax=69 / qpstep=4 / cplxblur=20.0 / qblur=0.5 / ip_ratio=1.40 / pb_ratio=1.30 / aq=1:1.00
Default : Да
Forced : Нет

Аудио
Идентификатор : 2
Формат : AC-3
Формат/Информация : Audio Coding 3
Расширение режима : CM (complete main)
Параметр Endianness формата : Big
Идентификатор кодека : A_AC3
Продолжительность : 24 м.
Вид битрейта : Постоянный
Битрейт : 128 Кбит/сек
Каналы : 2 канала
Расположение каналов : Front: L R
Частота : 48,0 КГц
Битовая глубина : 16 бит
Метод сжатия : С потерями
Размер потока : 22,6 Мбайт (7%)
Default : Да
Forced : Нет






   Похожие торренты   Торрент   Размер 
В этой теме нет новых непрочитанных сообщений. Два отца и два сына [01-20 из 20] (2013) DVDRip от New-Team | лицензия

297 | 328

6.53 ГБ

В этой теме нет новых непрочитанных сообщений. Два отца и два сына [01-20 из 20] (2013) 2xDVD9 R5 от New-Team | лицензия

21 | 32

15.15 ГБ

В этой теме нет новых непрочитанных сообщений. Два отца и два сына [01-20 из 20] (2013) WEBRip-AVC

20 | 7

7.8 ГБ

В этой теме нет новых непрочитанных сообщений. Два отца и два сына [01-20 из 20] (2013) WEB-DLRip от HitWay

3 | 6

5.75 ГБ

В этой теме нет новых непрочитанных сообщений. Два отца и два сына [S01-02] (2013) WEB-DLRip от HitWay

259 | 181

11.56 ГБ

В этой теме нет новых непрочитанных сообщений. Сын отца народов [01x01-12 из 12] (2013) DVDRip-AVC от New-Team | лицензия

41 | 11

8.75 ГБ

В этой теме нет новых непрочитанных сообщений. Сын отца народов [01x01-12 из 12] (2013) DVDRip от New-Team | лицензия

59 | 70

8.74 ГБ




Вы не можете начинать темы
Вы не можете отвечать на сообщения
Вы не можете редактировать свои сообщения
Вы не можете удалять свои сообщения
Вы не можете добавлять вложения

Перейти:  
Для Мосгорсуда, Роскомнадзора и рекламодателей: mosgorsud-torrent[собачка]yandex.ru
 Вход
ppkBB3cker v.2 © 2008-2014 @ PPK
[ Time : 0.031s | 16 Queries | GZIP : On ]

Торрент трекер RUTOR.IN, Не можете зайти на rutor.org? Какой новый адрес рутор? Какое зеркало рутор? Не работает rutor.org и зеркала? Тогда наш торрент специально для вас. Rutor.in неофициальное зеркало rutor. В случае если у Вас заблокирован rutor или вдруг Вы не можете на него зайти, то Вы без труда сможете скачать бесплатно и без рекламы последние новинки кино, игр, сериалов и прочего у нас, на Rutor.in. Не нужно использовать прокси, чтобы зайти на рутор, достаточно воспользоваться нашим ресурсом. Все новые фильмы, игры, сериалы, книги и музыка за 2013 и 2014 годы через торрент бесплатно. Скачивайте фильмы в хорошем качестве, игры для пк, xbox, playstation без регистрации. У нас вы найдете новые Зарубежные сериалы и Русские сериалы 2013, 2014, 2015 годов. Оставайтесь с нами, качайте любимые фильмы, игры, сериалы, книги и музыку.