img image001 image001 image001 image001 image001 image001 image001 image001 image001 image001 image001 image001 image001 image001 image001

Planets Sun Sun Sun
Статистика раздачи
Автор: Nickolas3434 | Размер: 9.29 ГБ | Добавлен: 02 апр 2014
Раздают: 432    Качают: 143
Скачать торрент
Скачать торрент
Описание торрента

СообщениеДобавлено: 02 апр 2014 

Информация о фильме
Название: Нюхач
Год выпуска: 2013
Жанр: Детектив
Режиссер: Артем Литвиненко
В ролях: Кирилл Кяро, Иван Оганесян, Мария Аниканова, Нина Гогаева, Борис Каморзин, Тимофей Каратаев, Виолетта Трыкова, Тарас Готовцев, Денис Мартынов, Александр Новосёлов, Дмитрий Усов, Пётр Крылов (III)

Описание: Его зовут Нюхач. Он обладает сверхчувствительным обонянием, для него не существует тайн и нераскрываемых преступлений. По запаху Нюхач может рассказать все и даже больше о любом человеке: что он ел, с кем он спал, есть ли у него алиби. Уникальная способность Нюхача – его дар и проклятие одновременно. С одной стороны, он раскрывает самые изощренные и запутанные преступления, знает все сокровенные тайны политиков, бизнесменов и криминальных авторитетов. С другой - Нюхач абсолютно беззащитен перед окружающим миром, переполненным всевозможными запахами. Он не умеет строить отношения ни с женщинами, ни с близкими людьми, потому что знает о них все: ему невозможно сделать сюрприз, его нельзя обмануть, любой посторонний запах оттолкнет его от самого романтического свидания. У него сложная, но интересная жизнь...

Страна: Россия, Украина
Студия: «Film.ua Production»
Продолжительность: 8 х ~ 00:50:00

Файл
Качество: BDRip 720p
Видео: MPEG-4 AVC, 3000 Кбит/с, 1280x720, 25.000 кадр/с
Аудио: Русский (AC3, 2 ch, 256 Кбит/с)

Семпл




x264 [info]: frame I:587   Avg QP:13.79  size: 94809
x264 [info]: frame P:19653 Avg QP:17.55  size: 31027
x264 [info]: frame B:54143 Avg QP:19.48  size:  8319
x264 [info]: consecutive B-frames:  3.7%  5.1% 18.2% 31.0% 12.9% 24.9%  1.9%  0.3%  0.1%  0.1%  0.1%  0.5%  1.2%
x264 [info]: mb I  I16..4: 10.0% 58.5% 31.5%
x264 [info]: mb P  I16..4:  3.0% 14.5%  2.8%  P16..4: 31.0% 30.9%  9.1%  0.0%  0.0%    skip: 8.7%
x264 [info]: mb B  I16..4:  0.5%  1.5%  0.2%  B16..8: 29.2% 14.8%  2.0%  direct: 3.7%  skip:48.1%  L0:38.0% L1:45.8% BI:16.2%
x264 [info]: 8x8 transform intra:69.7% inter:51.2%
x264 [info]: direct mvs  spatial:99.0% temporal:1.0%
x264 [info]: coded y,uvDC,uvAC intra: 68.9% 61.1% 37.9% inter: 14.7% 14.8% 6.0%
x264 [info]: i16 v,h,dc,p: 25% 26%  4% 44%
x264 [info]: i8 v,h,dc,ddl,ddr,vr,hd,vl,hu: 18% 16% 11%  6%  8% 10%  9% 10% 11%
x264 [info]: i4 v,h,dc,ddl,ddr,vr,hd,vl,hu: 24% 18%  9%  5% 10% 11%  8%  7%  7%
x264 [info]: i8c dc,h,v,p: 22% 39% 25% 14%
x264 [info]: Weighted P-Frames: Y:2.7% UV:1.6%
x264 [info]: ref P L0: 56.0%  8.7% 18.2%  4.9%  3.9%  2.7%  2.4%  1.4%  1.4%  0.4%  0.0%
x264 [info]: ref B L0: 83.8%  9.8%  3.0%  1.3%  0.8%  0.7%  0.4%  0.2%
x264 [info]: ref B L1: 94.7%  5.3%
x264 [info]: kb/s:3000.23
Общее
Уникальный идентификатор : 216123185506190474112621429776543762051 (0xA297CFBC1F6244D8AF29E46499BDC683)
Полное имя : D:Mои раздачиNyuhach.2013.BDRip.720p-MediaClub1.Seriya.mkv
Формат : Matroska
Версия формата : Version 4 / Version 2
Размер файла : 1,13 Гбайт
Продолжительность : 49 м.
Общий поток : 3258 Кбит/сек
Название фильма : -=MediaClub-kaspr=-
Дата кодирования : UTC 2014-04-01 12:06:38
Программа кодирования : mkvmerge v6.1.0 ('Old Devil') built on Mar 4 2013 09:10:42
Библиотека кодирования : libebml v1.3.0 + libmatroska v1.4.0

Видео
Идентификатор : 1
Формат : AVC
Формат/Информация : Advanced Video Codec
Профиль формата : High@L4.1
Параметр CABAC формата : Да
Параметр ReFrames формата : 9 кадров
Идентификатор кодека : V_MPEG4/ISO/AVC
Продолжительность : 49 м.
Битрейт : 3000 Кбит/сек
Ширина : 1280 пикселей
Высота : 720 пикселей
Соотношение сторон : 16:9
Режим частоты кадров : Постоянный
Частота кадров : 25,000 кадров/сек
Цветовое пространство : YUV
Субдискретизация насыщенности : 4:2:0
Битовая глубина : 8 бит
Тип развёртки : Прогрессивная
Бит/(Пиксели*Кадры) : 0.130
Размер потока : 1,02 Гбайт (90%)
Заголовок : -=MediaClub-kaspr=-
Библиотека кодирования : x264 core 142 r2409+42 04be48a tMod [8-bit@4:2:0 X86_64]
Настройки программы : cabac=1 / ref=9 / deblock=1:-3:-3 / analyse=0x3:0x113 / me=umh / subme=11 / psy=1 / fade_compensate=0.00 / psy_rd=1.00:0.20 / mixed_ref=1 / me_range=32 / chroma_me=1 / trellis=2 / 8x8dct=1 / cqm=0 / deadzone=21,11 / fast_pskip=0 / chroma_qp_offset=-3 / threads=12 / lookahead_threads=3 / sliced_threads=0 / nr=0 / decimate=0 / interlaced=0 / bluray_compat=0 / constrained_intra=0 / fgo=0 / bframes=12 / b_pyramid=2 / b_adapt=2 / b_bias=0 / direct=3 / weightb=1 / open_gop=0 / weightp=2 / keyint=250 / keyint_min=25 / scenecut=40 / intra_refresh=0 / rc=2pass / mbtree=0 / bitrate=3000 / ratetol=1.0 / qcomp=0.60 / qpmin=0:0:0 / qpmax=69:69:69 / qpstep=4 / cplxblur=20.0 / qblur=0.5 / ip_ratio=1.40 / pb_ratio=1.30 / aq=2:0.80 / aq-sensitivity=10.00 / aq-factor=1.00:1.00:1.00 / aq2=0 / aq3=0
Default : Да
Forced : Да

Аудио
Идентификатор : 2
Формат : AC-3
Формат/Информация : Audio Coding 3
Расширение режима : CM (complete main)
Параметр Endianness формата : Big
Идентификатор кодека : A_AC3
Продолжительность : 49 м.
Вид битрейта : Постоянный
Битрейт : 256 Кбит/сек
Каналы : 2 канала
Расположение каналов : Front: L R
Частота : 48,0 КГц
Битовая глубина : 16 бит
Метод сжатия : С потерями
Размер потока : 90,8 Мбайт (8%)
Язык : Russian
Default : Да
Forced : Да


Релиз: |



   Похожие торренты   Торрент   Размер 
В этой теме нет новых непрочитанных сообщений. Нюхач [01-08 из 08] (2013) BDRip | Лицензия

779 | 245

5.81 ГБ

В этой теме нет новых непрочитанных сообщений. Нюхач [S01-02] (2013-2015) HDTVRip от MediaClub & Generalfilm

1814 | 1027

11.77 ГБ

В этой теме нет новых непрочитанных сообщений. Нюхач [01-02х01-12 из 16] (2013-2015) HDTVRip от MediaClub & Generalfilm

111 | 54

8.76 ГБ

В этой теме нет новых непрочитанных сообщений. Нюхач [01-08 из 08] (2013) DVD9 R5 от New-Team | лицензия

10 | 8

7.95 ГБ

В этой теме нет новых непрочитанных сообщений. Нюхач [01-08 из 08] (2013) DVDRip-AVC от New-Team | лицензия

25 | 19

6.1 ГБ

В этой теме нет новых непрочитанных сообщений. Нюхач [01-08 из 08] (2013) DVDRip от New-Team | лицензия

342 | 62

6.1 ГБ

В этой теме нет новых непрочитанных сообщений. Гагарин. Первый в космосе (2013) BDRip 720p от MediaClub | Лицензия

59 | 6

7.94 ГБ




Вы не можете начинать темы
Вы не можете отвечать на сообщения
Вы не можете редактировать свои сообщения
Вы не можете удалять свои сообщения
Вы не можете добавлять вложения

Перейти:  
Для Мосгорсуда, Роскомнадзора и рекламодателей: mosgorsud-torrent[собачка]yandex.ru
 Вход
ppkBB3cker v.2 © 2008-2014 @ PPK
[ Time : 0.048s | 17 Queries | GZIP : Off ]

Торрент трекер RUTOR.IN, Не можете зайти на rutor.org? Какой новый адрес рутор? Какое зеркало рутор? Не работает rutor.org и зеркала? Тогда наш торрент специально для вас. Rutor.in неофициальное зеркало rutor. В случае если у Вас заблокирован rutor или вдруг Вы не можете на него зайти, то Вы без труда сможете скачать бесплатно и без рекламы последние новинки кино, игр, сериалов и прочего у нас, на Rutor.in. Не нужно использовать прокси, чтобы зайти на рутор, достаточно воспользоваться нашим ресурсом. Все новые фильмы, игры, сериалы, книги и музыка за 2013 и 2014 годы через торрент бесплатно. Скачивайте фильмы в хорошем качестве, игры для пк, xbox, playstation без регистрации. У нас вы найдете новые Зарубежные сериалы и Русские сериалы 2013, 2014, 2015 годов. Оставайтесь с нами, качайте любимые фильмы, игры, сериалы, книги и музыку.
cron