img image001 image001 image001 image001 image001 image001 image001 image001 image001 image001 image001 image001 image001 image001 image001

Planets Sun Sun Sun
Статистика раздачи
Автор: Nickolas3434 | Размер: 8.02 ГБ | Добавлен: 03 апр 2014
Раздают: 8    Качают: 13
Скачать торрент
Скачать торрент
Описание торрента

СообщениеДобавлено: 03 апр 2014 

Год выпуска: 2013
Страна: США
Жанр: комедия
Продолжительность: ~ 00:22:00 / серия
Перевод: Любительский (двухголосый закадровый) [Причудики]
Субтитры: Английские (iTunes)
Режиссёр: Джон Ригги
В ролях: Ребел Уилсон, Лорен Эш, Кевин Бишоп, Лиза Лапира, Дэна Ли, Дебора Бэйкер мл., Анна Кэмп, Коуди Кеннеди, Кристиан Элайджа Майо, Эди Паттерсон

Описание: Комедия расскажет о трех подругах, каждый пятничный вечер отправляющихся на поиски «супер-веселья».




Качество: WEB-DL 1080p
Формат: MKV
Видео кодек: AVC
Аудио кодек: AC3
Видео: AVC, 1916x1080 (16:9), 23.976 fps, 5 185 Kbps (0.104 bit/pixel)
Аудио #1: AC-3, 48.0 KHz, 6 ch, 384 Kbps, CBR (Rus)
Аудио #2: AC-3, 48.0 KHz, 6 ch, 384 Kbps, CBR (Eng)



Complete name : Super.Fun.Night.S01E01.1080p.WEB-DL.Rus.Eng.Subs-Pri4udiki.mkv
Format : Matroska
Format version : Version 4 / Version 2
File size : 939 MiB
Duration : 21mn 37s
Overall bit rate : 6 073 Kbps
Encoded date : UTC 2013-10-05 20:22:04
Writing application : mkvmerge v6.1.0 ('Old Devil') built on Mar 4 2013 09:10:42
Writing library : libebml v1.3.0 + libmatroska v1.4.0

Video
ID : 1
Format : AVC
Format/Info : Advanced Video Codec
Format profile : High@L4.0
Format settings, CABAC : Yes
Format settings, ReFrames : 4 frames
Codec ID : V_MPEG4/ISO/AVC
Duration : 21mn 37s
Bit rate : 5 185 Kbps
Width : 1 916 pixels
Height : 1 080 pixels
Display aspect ratio : 16:9
Frame rate mode : Constant
Frame rate : 23.976 fps
Color space : YUV
Chroma subsampling : 4:2:0
Bit depth : 8 bits
Scan type : Progressive
Bits/(Pixel*Frame) : 0.104
Stream size : 802 MiB (85%)
Language : English
Default : Yes
Forced : No
Color primaries : BT.709
Transfer characteristics : BT.709
Matrix coefficients : BT.709

Audio #1
ID : 2
Format : AC-3
Format/Info : Audio Coding 3
Mode extension : CM (complete main)
Format settings, Endianness : Big
Codec ID : A_AC3
Duration : 21mn 37s
Bit rate mode : Constant
Bit rate : 384 Kbps
Channel(s) : 6 channels
Channel positions : Front: L C R, Side: L R, LFE
Sampling rate : 48.0 KHz
Bit depth : 16 bits
Compression mode : Lossy
Stream size : 59.4 MiB (6%)
Title : Pri4udiki
Language : Russian
Default : Yes
Forced : No

Audio #2
ID : 3
Format : AC-3
Format/Info : Audio Coding 3
Mode extension : CM (complete main)
Format settings, Endianness : Big
Codec ID : A_AC3
Duration : 21mn 37s
Bit rate mode : Constant
Bit rate : 384 Kbps
Channel(s) : 6 channels
Channel positions : Front: L C R, Side: L R, LFE
Sampling rate : 48.0 KHz
Bit depth : 16 bits
Compression mode : Lossy
Stream size : 59.4 MiB (6%)
Language : English
Default : No
Forced : No

Text
ID : 4
Format : UTF-8
Codec ID : S_TEXT/UTF8
Codec ID/Info : UTF-8 Plain Text
Language : English
Default : No
Forced : No





   Похожие торренты   Торрент   Размер 
В этой теме нет новых непрочитанных сообщений. Супер весёлый вечер / Super Fun Night [01x01-05] WEB-DL 1080p | L2

0 | 2

4.46 ГБ

В этой теме нет новых непрочитанных сообщений. Супер весёлый вечер / Super Fun Night [01x01-09] WEB-DL 720p | L2

9 | 12

6.57 ГБ

В этой теме нет новых непрочитанных сообщений. Супер весёлый вечер / Super Fun Night [01x01-09] WEB-DLRip | L2

50 | 27

2.53 ГБ

В этой теме нет новых непрочитанных сообщений. Супер весёлый вечер / Super Fun Night [01x01-05] WEB-DL 720p | L2

0 | 2

3.69 ГБ

В этой теме нет новых непрочитанных сообщений. Супер весёлый вечер / Super Fun Night [01x01-05] WEB-DLRip | L2

0 | 2

1.46 ГБ

В этой теме нет новых непрочитанных сообщений. Супер-рыба: Стотысячелетний план / Super Fish [01x01] (2012) HDRip от Rulya74

16 | 5

703.94 МБ

В этой теме нет новых непрочитанных сообщений. Супер 8 / Super 8 (2011) Blu-Ray 1080p

0 | 3

45.97 ГБ




Вы не можете начинать темы
Вы не можете отвечать на сообщения
Вы не можете редактировать свои сообщения
Вы не можете удалять свои сообщения
Вы не можете добавлять вложения

Перейти:  
Для Мосгорсуда, Роскомнадзора и рекламодателей: mosgorsud-torrent[собачка]yandex.ru
 Вход
ppkBB3cker v.2 © 2008-2014 @ PPK
[ Time : 0.048s | 16 Queries | GZIP : Off ]

Торрент трекер RUTOR.IN, Не можете зайти на rutor.org? Какой новый адрес рутор? Какое зеркало рутор? Не работает rutor.org и зеркала? Тогда наш торрент специально для вас. Rutor.in неофициальное зеркало rutor. В случае если у Вас заблокирован rutor или вдруг Вы не можете на него зайти, то Вы без труда сможете скачать бесплатно и без рекламы последние новинки кино, игр, сериалов и прочего у нас, на Rutor.in. Не нужно использовать прокси, чтобы зайти на рутор, достаточно воспользоваться нашим ресурсом. Все новые фильмы, игры, сериалы, книги и музыка за 2013 и 2014 годы через торрент бесплатно. Скачивайте фильмы в хорошем качестве, игры для пк, xbox, playstation без регистрации. У нас вы найдете новые Зарубежные сериалы и Русские сериалы 2013, 2014, 2015 годов. Оставайтесь с нами, качайте любимые фильмы, игры, сериалы, книги и музыку.