img image001 image001 image001 image001 image001 image001 image001 image001 image001 image001 image001 image001 image001 image001 image001

Planets Sun Sun Sun
Статистика раздачи
Автор: Nickolas3434 | Размер: 6.14 ГБ | Добавлен: 03 апр 2014
Раздают: 448    Качают: 252
Скачать торрент
Скачать торрент
Описание торрента

СообщениеДобавлено: 03 апр 2014 


Страна: Россия / Марс Медиа Энтертейнмент

Жанр: военный, драма
Год выпуска: 2014
Продолжительность: ~00:48:30 - серия

Перевод: Не требуется
Cубтитры: нет
Оригинальная аудиодорожка: русский

Режиссер: Бахтиер Худойназаров

В ролях: Андрей Панин, Сергей Гармаш, Филипп Янковский, Артур Смольянинов, Анатолий Гущин, Татьяна Лютаева,Дарья Мельникова, Алиса Горшкова, Анастасия Микульчина, Аглая Тарасова...

Описание: Сентябрь 1939 года. Начало Второй Мировой войны. В Крым приезжает майор советской разведки Соколов. Его главная цель — выявить агентурную сеть террористической антисоветской организации РОВС. Руководит контрразведкой Русского общевоинского союза — штабс-капитан Семенов, псевдоним Крест.
Крест и Соколов — давние враги. Белые офицеры, в 1917 году они оказались по разные стороны баррикад. Они прекрасно знают друг друга в лицо, хотели бы и не один раз могли бы убить друг друга, но каждому из них нужна гибель системы, которую представляет противник. Оба — азартные игроки — они начинают сложную партию, в которой шансы на победу почти равны. Каждый из них готов жертвовать любыми фигурами, включая себя, ведь на кону — Родина. Одна. Но для каждого своя…



Качество: DVDRip / DVD9 R5
Формат: AVI

Видео: 720x400 (16:9), 25.000 fps, XviD ~ 1800 kbps avg, 0.250 bit/pixel
Аудио: 48 kHz, Dolby AC3, 6 ch, 448 kbps, русский

Раздача от:

Общее
Полное имя : Getery.mayora.Sokolova.2014.DVDRip_[New-Team]_by_avproh1.avi
Формат : AVI
Формат/Информация : Audio Video Interleave
Размер файла : 783 Мбайт
Продолжительность : 48 м.
Общий поток : 2258 Кбит/сек
Программа кодирования : VirtualDubMod 1.5.10.3 | www.virtualdub-fr.org || (build 2550/release)
Библиотека кодирования : VirtualDubMod build 2550/release

Видео
Идентификатор : 0
Формат : MPEG-4 Visual
Профиль формата : Advanced Simple@L5
Параметр BVOP формата : 1
Параметр QPel формата : Нет
Параметр GMC формата : Без точки перехода
Параметр матрицы формата : Выборочная
Идентификатор кодека : XVID
Идентификатор кодека/Подсказка : XviD
Продолжительность : 48 м.
Битрейт : 1800 Кбит/сек
Ширина : 720 пикселей
Высота : 400 пикселей
Соотношение сторон : 16:9
Частота кадров : 25,000 кадров/сек
Цветовое пространство : YUV
Субдискретизация насыщенности : 4:2:0
Битовая глубина : 8 бит
Тип развёртки : Прогрессивная
Метод сжатия : С потерями
Бит/(Пиксели*Кадры) : 0.250
Размер потока : 624 Мбайт (80%)
Библиотека кодирования : XviD 73

Аудио
Идентификатор : 1
Формат : AC-3
Формат/Информация : Audio Coding 3
Расширение режима : CM (complete main)
Параметр Endianness формата : Big
Идентификатор кодека : 2000
Продолжительность : 48 м.
Вид битрейта : Постоянный
Битрейт : 448 Кбит/сек
Каналы : 6 каналов
Расположение каналов : Front: L C R, Side: L R, LFE
Частота : 48,0 КГц
Битовая глубина : 16 бит
Метод сжатия : С потерями
Размер потока : 155 Мбайт (20%)
Выравнивание : Разделение по промежуткам
Продолжительность промежутка : 40 мс. (1,00 видеокадр)
Время предзагрузки промежутка : 500 мс.





   Похожие торренты   Торрент   Размер 
В этой теме нет новых непрочитанных сообщений. Гетеры майора Соколова [01-08 из 08] (2014) DVDRip-AVC от New-Team | лицензия

448 | 220

6.66 ГБ

В этой теме нет новых непрочитанных сообщений. Гетеры майора Соколова [01-08 из 08] (2014) 2xDVD9 R5 от New-Team | лицензия

16 | 37

15.37 ГБ

В этой теме нет новых непрочитанных сообщений. Гетеры майора Соколова [01-08 из 08] (2014) HDTVRip от New-Team

403 | 208

5.3 ГБ

В этой теме нет новых непрочитанных сообщений. Гетеры майора Соколова [01-06 из 08] (2014) HDTVRip-AVC от New-Team

34 | 15

4.33 ГБ

В этой теме нет новых непрочитанных сообщений. Гетеры майора Соколова [01-06 из 08] (2014) HDTVRip от New-Team

8 | 10

3.95 ГБ

В этой теме нет новых непрочитанных сообщений. Гетеры майора Соколова [01-08 из 08] (2014) HDTVRip-AVC от New-Team

155 | 182

5.81 ГБ

В этой теме нет новых непрочитанных сообщений. Гетеры майора Соколова [01-08 из 08] (2014) WEB-DLRip

1544 | 656

3.1 ГБ




Вы не можете начинать темы
Вы не можете отвечать на сообщения
Вы не можете редактировать свои сообщения
Вы не можете удалять свои сообщения
Вы не можете добавлять вложения

Перейти:  
Для Мосгорсуда, Роскомнадзора и рекламодателей: mosgorsud-torrent[собачка]yandex.ru
 Вход
ppkBB3cker v.2 © 2008-2014 @ PPK
[ Time : 0.046s | 16 Queries | GZIP : Off ]

Торрент трекер RUTOR.IN, Не можете зайти на rutor.org? Какой новый адрес рутор? Какое зеркало рутор? Не работает rutor.org и зеркала? Тогда наш торрент специально для вас. Rutor.in неофициальное зеркало rutor. В случае если у Вас заблокирован rutor или вдруг Вы не можете на него зайти, то Вы без труда сможете скачать бесплатно и без рекламы последние новинки кино, игр, сериалов и прочего у нас, на Rutor.in. Не нужно использовать прокси, чтобы зайти на рутор, достаточно воспользоваться нашим ресурсом. Все новые фильмы, игры, сериалы, книги и музыка за 2013 и 2014 годы через торрент бесплатно. Скачивайте фильмы в хорошем качестве, игры для пк, xbox, playstation без регистрации. У нас вы найдете новые Зарубежные сериалы и Русские сериалы 2013, 2014, 2015 годов. Оставайтесь с нами, качайте любимые фильмы, игры, сериалы, книги и музыку.