img image001 image001 image001 image001 image001 image001 image001 image001 image001 image001 image001 image001 image001 image001 image001

Planets Sun Sun Sun
Статистика раздачи
Автор: Nickolas3434 | Размер: 9.83 ГБ | Добавлен: 03 апр 2014
Раздают: 70    Качают: 40
Скачать торрент
Скачать торрент
Описание торрента

СообщениеДобавлено: 03 апр 2014 

Морская полиция: Лос Анджелес / NCIS: Los Angeles

Год выпуска: 2013
Страна: США
Жанр: триллер, драма, криминал, детектив
Продолжительность серии: ~00:43:00

Перевод: Профессиональный (многоголосый закадровый) - BaibaKo

Автор перевода:Янина Галицкая
Озвучка:Светлана Доманова, Татьяна Оболевич, Дмитрий Глебов и Виталий Ткаченко
Монтаж:Виталий Ткаченко
Обложка:Антон Максимов



Режиссёр: Тони Уормби, Терренс О’Хара, Джеймс Уитмор мл.
В ролях: Крис О`Доннелл, LL Кул Джей, Линда Хант, Peter Cambor, Daniela Ruah, Адам Ямал Крэйг, Barrett Foa, Роки Кэрролл, Клер Кэри, Винсент Де Пол и др.

Описание:
5-й сезон NCIS: Los Angeles — драмы о сложной работе — наблюдении под прикрытием.
Отдел особых проектов — подразделение NCIS, которое занимается опасными преступниками, угрожающими безопасности всей страны. Используя фальшивые личности и последние технологии, команда специалистов работает под прикрытием, рискуя собственными жизнями ради достижения цели. Специальный агент Джи Каллен — хамелеон, который способен трансформироваться в кого угодно, чтобы проникнуть в преступный мир.

Его напарник — специальный агент Сэм Ханна, бывший морской котик, который участвовал в боях в Афганистане и в Ираке, эксперт по наблюдению, который использует последние достижения мониторинга для наблюдения за полевыми агентами и связи с ними. Помогает команде специальный агент Кенси Блай, необыкновенно одаренная дочь погибшего морпеха, которая обожает риск, сопутствующий работе под прикрытием. Психолог Нэйт Гетц способен понять мотивы любого человека, он составляет профили преступников и наблюдает за психологическим состоянием оперативников. Эта небольшая команда полагается друг на друга и готова сделать все, чтобы защитить национальные интересы.
Качество: WEB-DLRip
Формат: AVI
Видео: XviD, 720x400 (16:9), 23.976 fps, ~1532 kbps, 0.222 bit/pixel
Аудио Rus: MP3, 48 KHz, 2 ch, 192 kbps - многоголосый закадровый
Аудио Eng: MP3, 48 KHz, 2 ch, 192 kbps - оригинал
Субтитры: отсутствуют
01. Ascension / На подъёме
02. Impact / Удар
03. Omni / Омни
04. Reznikov, N / Резников Н.
05. Unwritten Rule / Неписаное правило
06. Big Brother / Большой брат
07. The Livelong Day / День-деньской
08. Fallout / Нежелательные последствия
09. Recovery / Восстановление
10. The Frozen Lake / Замёрзшее озеро
11. Iron Curtain Rising / Железный занавес поднимается
12. Merry Evasion / Счастливого изворотства
13. Allegiance / Верность
14. War Cries / Боевой клич
15. Tuhon / Тюхон
16. Fish Out of Water / Рыба без воды
17. Between the Lines / Между строк


Общее
Полное имя : D:Морская полиция Лос-Анджелес (Сезон 5) NCIS Los Angeles (2013) WEBDLRip - BaibaKoNCIS.Los.Angele.s.05e01.WEB-DLRip.XviD.Rus.Eng.BaibaKo.tv.avi
Формат : AVI
Формат/Информация : Audio Video Interleave
Размер файла : 604 Мбайт
Продолжительность : 43 м.
Общий поток : 1931 Кбит/сек
Программа кодирования : VirtualDubModRus 1.5.10.2 (build 2542/release)
Библиотека кодирования : VirtualDubMod build 2542/release

Видео
Идентификатор : 0
Формат : MPEG-4 Visual
Профиль формата : Advanced Simple@L5
Параметр BVOP формата : 2
Параметр QPel формата : Нет
Параметр GMC формата : Без точки перехода
Параметр матрицы формата : Default (H.263)
Идентификатор кодека : XVID
Идентификатор кодека/Подсказка : XviD
Продолжительность : 43 м.
Битрейт : 1532 Кбит/сек
Ширина : 720 пикселей
Высота : 400 пикселей
Соотношение сторон : 16:9
Частота кадров : 23,976 кадра/сек
Цветовое пространство : YUV
Субдискретизация насыщенности : 4:2:0
Битовая глубина : 8 бит
Тип развёртки : Прогрессивная
Метод сжатия : С потерями
Бит/(Пиксели*Кадры) : 0.222
Размер потока : 479 Мбайт (79%)
Библиотека кодирования : XviD 64

Аудио #1
Идентификатор : 1
Формат : MPEG Audio
Версия формата : Version 1
Профиль формата : Layer 3
Режим : Joint stereo
Идентификатор кодека : 55
Идентификатор кодека/Подсказка : MP3
Продолжительность : 43 м.
Вид битрейта : Постоянный
Битрейт : 192 Кбит/сек
Каналы : 2 канала
Частота : 48,0 КГц
Метод сжатия : С потерями
Размер потока : 60,0 Мбайт (10%)
Выравнивание : Разделение по промежуткам
Продолжительность промежутка : 42 мс. (1,00 видеокадр)
Время предзагрузки промежутка : 500 мс.

Аудио #2
Идентификатор : 2
Формат : MPEG Audio
Версия формата : Version 1
Профиль формата : Layer 3
Режим : Joint stereo
Идентификатор кодека : 55
Идентификатор кодека/Подсказка : MP3
Продолжительность : 43 м.
Вид битрейта : Постоянный
Битрейт : 192 Кбит/сек
Каналы : 2 канала
Частота : 48,0 КГц
Метод сжатия : С потерями
Размер потока : 60,0 Мбайт (10%)
Выравнивание : Разделение по промежуткам
Продолжительность промежутка : 42 мс. (1,00 видеокадр)
Время предзагрузки промежутка : 500 мс.



Раздача ведётся путём добавления новых серий; при каждом добавлении создаётся новый торрент. Чтобы начать докачку новой серии, пользователям необходимо сделать следующее:
(1) остановить скачивание,
(2) удалить старый торрент у себя из клиента (старые серии удалять не надо),
(3) скачать новый торрент и запустить его у себя в клиенте вместо старого, при этом указать клиенту путь в старую папку куда и должно происходить скачивание новых серий.

Ваш клиент при этом должен произвести хеширование (проверку) старой папки (если не производит сам - помогите ему сделать это), и будет докачивать только те серии которых у вас ещё нет. Старые серии при этом не удаляются, а продолжают раздаваться!

Eсли вы уже удалили старые серии, то предотвратить повторную закачку старых серий можно, отжав галочку в соответствующих местах при запуске нового торрента. По возможности, желательно не удалять старые серии как можно дольше чтобы релизёр не столько продолжал раздавать старые серии, а смог сконцентрироваться на новых.



   Похожие торренты   Торрент   Размер 
В этой теме нет новых непрочитанных сообщений. Морская полиция: Лос-Анджелес / NCIS: Los Angeles [05х01-19] (2012) HDTVRip | Sub

6 | 16

6.48 ГБ

В этой теме нет новых непрочитанных сообщений. Морская полиция: Лос-Анджелес / NCIS: Los Angeles [04х11-24] (2012) WEB-DLRip

29 | 17

7.55 ГБ

В этой теме нет новых непрочитанных сообщений. Морская полиция: Лос-Анджелес / NCIS: Los Angeles [04х01-10] (2012) WEB-DLRip

34 | 14

4.4 ГБ

В этой теме нет новых непрочитанных сообщений. Морская Полиция: Лос-Анджелес / NCIS: Los Angeles [03x01-14 из 24] (2011-2012) WEB-DLRip от CasStudio | P | FOX

7 | 2

9.69 ГБ

В этой теме нет новых непрочитанных сообщений. Морская Полиция: Лос-Анджелес / NCIS: Los Angeles [03x01-17 из 24] (2011-2012) WEB-DLRip от CasStudio | P | FOX

9 | 7

11.77 ГБ

В этой теме нет новых непрочитанных сообщений. Морская Полиция: Лос-Анджелес / NCIS: Los Angeles [03x01-16 из 24] (2011-2012) WEB-DLRip от CasStudio | P | FOX

10 | 21

11.07 ГБ

В этой теме нет новых непрочитанных сообщений. Морская Полиция: Лос-Анджелес / NCIS: Los Angeles [03x01-18 из 24] (2011-2012) WEB-DLRip от CasStudio | P | FOX

6 | 8

12.47 ГБ




Вы не можете начинать темы
Вы не можете отвечать на сообщения
Вы не можете редактировать свои сообщения
Вы не можете удалять свои сообщения
Вы не можете добавлять вложения

Перейти:  
Для Мосгорсуда, Роскомнадзора и рекламодателей: mosgorsud-torrent[собачка]yandex.ru
 Вход
ppkBB3cker v.2 © 2008-2014 @ PPK
[ Time : 0.113s | 16 Queries | GZIP : Off ]

cron