img image001 image001 image001 image001 image001 image001 image001 image001 image001 image001 image001 image001 image001 image001 image001

Planets Sun Sun Sun
Статистика раздачи
Автор: Nickolas3434 | Размер: 2.38 ГБ | Добавлен: 08 апр 2014
Раздают: 7    Качают: 7
Скачать торрент
Скачать торрент
Описание торрента

СообщениеДобавлено: 08 апр 2014 




Информация о фильме
Название: Правосудие / Justified
Год выпуска: 2014
Жанр: Боевик, триллер, драма, криминал
Режиссеры: Джон Дал, Джон Эвнет, Адам Аркин, Майкл В. Уоткинс, Майкл Диннер, Питер Уэрнер, Тони Голдуин, Дин Паризо
В ролях: Тимоти Олифант, Ник Сирси, Джоэль Картер, Джекоб Питтс, Эрика Н. Тэйзел, Уолтон Гоггинс, Натали Зиа, Дэвид Мюнье, Рэймонд Дж. Бэрри, Джер Бернс, Джереми Дэвис, Уильям Рэгсдэйл, Майкелти Уильямсон, Деметриус Гросс, Кейтлин Девер


Описание:
Маршала Рэйлана Гивенса (Тимоти Олифант) переводят из Майами в родной городок Харлан, штат Кентукки (из-за привычки не разводить с преступниками долгие разговоры за жизнь, а стрелять их прямо на месте). Гивенс это захолустье терпеть не может, однако по приезду обнаруживает, что здесь тоже найдётся чем себя занять. Бывший лучший друг (Уолтон Гоггинс) стал по ту сторону закона, бандиты совершают налёты на банк прямо посреди бела дня, а местные любители кантри то и дело норовят достать из-под полы дробовик – в общем, будет весело.



01. A Murder of Crowes
02. The Kids Aren't All Right
03. Good Intentions
04. Over the Mountain
05. Shot All to Hell
06. Kill the Messenger
07. Raw Deal
08. Whistle Past the Graveyard
09. Wrong Roads
10. Weight


Продолжительность: 04 х ~ 00:49:00
Выпущено: США, FX Productions, Timberman-Beverly Productions, Nemo Films, Rooney McP Productions, Sony Pictures Television
Перевод: Любительский многоголосый
Файл
Формат: AVI
Качество: HDTVRip
Видео: XviD, ~ 1864 Кбит/с, 720x404
Аудио: MP3, 2 ch, 128 Кбит/с

Полное имя : D:Заливка фильмаПравосудие (сезон 5)Justified.S05E01.rus.apofys.avi
Формат : AVI
Формат/Информация : Audio Video Interleave
Размер файла : 703 Мбайт
Продолжительность : 49 м.
Общий поток : 2004 Кбит/сек
Программа кодирования : Lavf53.18.0
Библиотека кодирования : VirtualDub build 34703/release
Видео
Идентификатор : 0
Формат : MPEG-4 Visual
Профиль формата : Simple@L1
Параметр BVOP формата : Нет
Параметр QPel формата : Нет
Параметр GMC формата : Без точки перехода
Параметр матрицы формата : Default (H.263)
Идентификатор кодека : DX50
Идентификатор кодека/Подсказка : DivX 5
Продолжительность : 49 м.
Битрейт : 1864 Кбит/сек
Ширина : 720 пикселей
Высота : 404 пикселя
Соотношение сторон : 16:9
Частота кадров : 29,970 кадров/сек
Цветовое пространство : YUV
Субдискретизация насыщенности : 4:2:0
Битовая глубина : 8 бит
Тип развёртки : Прогрессивная
Метод сжатия : С потерями
Бит/(Пиксели*Кадры) : 0.214
Размер потока : 654 Мбайт (93%)
Библиотека кодирования : Lavc53.26.0
Аудио
Идентификатор : 1
Формат : MPEG Audio
Версия формата : Version 1
Профиль формата : Layer 3
Режим : Joint stereo
Расширение режима : MS Stereo
Идентификатор кодека : 55
Идентификатор кодека/Подсказка : MP3
Продолжительность : 49 м.
Вид битрейта : Постоянный
Битрейт : 128 Кбит/сек
Каналы : 2 канала
Частота : 44,1 КГц
Метод сжатия : С потерями
Размер потока : 44,9 Мбайт (6%)
Выравнивание : Разделение по промежуткам
Продолжительность промежутка : 33 мс. (1,00 видеокадр)
Время предзагрузки промежутка : 500 мс.






   Похожие торренты   Торрент   Размер 
В этой теме нет новых непрочитанных сообщений. Правосудие / Justified [S04] (2013) HDTVRip | L1

27 | 3

6.27 ГБ

В этой теме нет новых непрочитанных сообщений. Правосудие / Justified [S04] (2013) HDTVRip-AVC | Sub

0 | 2

3.78 ГБ

В этой теме нет новых непрочитанных сообщений. Правосудие / Justified [04x01-11 из 13] (2013) HDTVRip | L1

0 | 3

5.18 ГБ

В этой теме нет новых непрочитанных сообщений. Правосудие / Justified [04x01-10 из 13] (2013) HDTVRip | L1

1 | 2

4.65 ГБ

В этой теме нет новых непрочитанных сообщений. Правосудие / Своя Правда / Justified [S05] (2014) WEB-DLRip | Jaskier

61 | 36

6.99 ГБ

В этой теме нет новых непрочитанных сообщений. Правосудие / Своя Правда / Justified [S05] (2014) WEB-DL 720p | Jaskier

7 | 19

20.83 ГБ

В этой теме нет новых непрочитанных сообщений. Правосудие / Своя Правда / Justified [05х01-06] (2014) WEB-DL 720p | Jaskier

31 | 27

9.68 ГБ




Вы не можете начинать темы
Вы не можете отвечать на сообщения
Вы не можете редактировать свои сообщения
Вы не можете удалять свои сообщения
Вы не можете добавлять вложения

Перейти:  
Для Мосгорсуда, Роскомнадзора и рекламодателей: mosgorsud-torrent[собачка]yandex.ru
 Вход
ppkBB3cker v.2 © 2008-2014 @ PPK
[ Time : 0.046s | 14 Queries | GZIP : Off ]

Торрент трекер RUTOR.IN, Не можете зайти на rutor.org? Какой новый адрес рутор? Какое зеркало рутор? Не работает rutor.org и зеркала? Тогда наш торрент специально для вас. Rutor.in неофициальное зеркало rutor. В случае если у Вас заблокирован rutor или вдруг Вы не можете на него зайти, то Вы без труда сможете скачать бесплатно и без рекламы последние новинки кино, игр, сериалов и прочего у нас, на Rutor.in. Не нужно использовать прокси, чтобы зайти на рутор, достаточно воспользоваться нашим ресурсом. Все новые фильмы, игры, сериалы, книги и музыка за 2013 и 2014 годы через торрент бесплатно. Скачивайте фильмы в хорошем качестве, игры для пк, xbox, playstation без регистрации. У нас вы найдете новые Зарубежные сериалы и Русские сериалы 2013, 2014, 2015 годов. Оставайтесь с нами, качайте любимые фильмы, игры, сериалы, книги и музыку.