img image001 image001 image001 image001 image001 image001 image001 image001 image001 image001 image001 image001 image001 image001 image001

Planets Sun Sun Sun
Статистика раздачи
Автор: Nickolas3434 | Размер: 28.14 ГБ | Добавлен: 09 апр 2014
Раздают: 2    Качают: 3
Скачать торрент
Скачать торрент
Описание торрента

СообщениеДобавлено: 09 апр 2014 

Информация о фильме
Название: Позднее раскаяние
Год выхода: 2013
Жанр: Драма, мелодрама
Режиссер: Оксана Байрак
В ролях: Артем Крестников, Марина Ягодкина, Андрей Косташ, Яна Глущенко, Оксана Коляденко, Михаил Пшеничный, Светлана Косолапова, Алёша Барбинов, Сергей Комаров (II), Лариса Удовиченко, Анна Синякина, Регина Мянник, Олег Масленников-Войтов, Максим Дрозд, Игорь Верник, Дарина Лобода, Никита Зверев, Наталия Васько, Ада Роговцева, Дарья Волга

О фильме: Семья Милы и Кости держится исключительно благодаря двум дочерям, Лике и Кире. Мила давно сняла со счетов мужа, который не может обеспечить семью, отдав предпочтение предприимчивому любовнику Томашу. А вот жизнь Анны и ее сына Сергея подчинена ожиданию чуда – не смотря на то, что ее муж уже несколько лет числится пропавшим без вести, Анна все еще верит, что он вернется из Афганистана. И так непростая жизнь двух семей внезапно запутывается еще больше, когда оказывается, что у Киры и Сергея будет ребенок, ведь влюбленным всего по 16 лет…

Выпущено: Украина, «Film.ua Production»
Продолжительность: 12 x 00:47:00
Перевод: Не требуется

Файл
Качество: HDTV 1080i
Видео: MPEG-4 AVC, ~ 7200 Кбит/с, 1920x1080
Аудио: MP2, 2 ch, 192 Кбит/с

Общее
Идентификатор : 1 (0x1)
Полное имя : D:VytasRipaiPozdnee.raskajene.2014.HDTV.1080.Files-x1.Pozdnee.raskajene.2014.HDTV.1080.Files-x.ts
Формат : MPEG-TS
Размер файла : 2,54 Гбайт
Продолжительность : 46 м.
Режим общего битрейта : Переменный
Общий поток : 7763 Кбит/сек

Видео
Идентификатор : 68 (0x44)
Идентификатор меню : 1 (0x1)
Формат : AVC
Формат/Информация : Advanced Video Codec
Профиль формата : High@L4.0
Параметр CABAC формата : Да
Параметр ReFrames формата : 3 кадра
Параметр GOP формата : M=4, N=28
Идентификатор кодека : 27
Продолжительность : 46 м.
Битрейт : 7185 Кбит/сек
Ширина : 1920 пикселей
Высота : 1080 пикселей
Соотношение сторон : 16:9
Частота кадров : 25,000 кадров/сек
Стандарт вещания : Component
Цветовое пространство : YUV
Субдискретизация насыщенности : 4:2:0
Битовая глубина : 8 бит
Тип развёртки : Чересстрочная
Порядок развёртки : Верхнее поле первое
Бит/(Пиксели*Кадры) : 0.139
Размер потока : 2,35 Гбайт (93%)
Основные цвета : BT.709
Характеристики трансфера : BT.709
Коэффициенты матрицы : BT.709

Аудио
Идентификатор : 69 (0x45)
Идентификатор меню : 1 (0x1)
Формат : MPEG Audio
Версия формата : Version 1
Профиль формата : Layer 2
Идентификатор кодека : 3
Продолжительность : 46 м.
Вид битрейта : Постоянный
Битрейт : 192 Кбит/сек
Каналы : 2 канала
Частота : 48,0 КГц
Метод сжатия : С потерями
Размер потока : 64,3 Мбайт (2%)
Язык : Russian





Релиз от:



   Похожие торренты   Торрент   Размер 
В этой теме нет новых непрочитанных сообщений. Позднее раскаяние [01-02 из 16] (2013) HDTV 1080i от Files-x

33 | 22

5.07 ГБ

В этой теме нет новых непрочитанных сообщений. Позднее раскаяние [01-16 из 16] (2013) HDTV 1080i от Files-x

55 | 52

37.28 ГБ

В этой теме нет новых непрочитанных сообщений. Позднее раскаяние [01-04 из 16] (2013) HDTV 1080i от Files-x

32 | 48

9.73 ГБ

В этой теме нет новых непрочитанных сообщений. Позднее раскаяние [01-08 из 16] (2013) HDTV 1080i от Files-x

50 | 61

18.98 ГБ

В этой теме нет новых непрочитанных сообщений. Позднее раскаяние [01-14 из 16] (2013) HDTV 1080i от Files-x

2 | 21

32.67 ГБ

В этой теме нет новых непрочитанных сообщений. Позднее раскаяние [01-14 из 16] (2013) HDTVRip от Files-x

38 | 48

7.52 ГБ

В этой теме нет новых непрочитанных сообщений. Позднее раскаяние [01-08 из 16] (2013) HDTVRip от Files-x

123 | 91

4.3 ГБ




Вы не можете начинать темы
Вы не можете отвечать на сообщения
Вы не можете редактировать свои сообщения
Вы не можете удалять свои сообщения
Вы не можете добавлять вложения

Перейти:  
Для Мосгорсуда, Роскомнадзора и рекламодателей: mosgorsud-torrent[собачка]yandex.ru
 Вход
ppkBB3cker v.2 © 2008-2014 @ PPK
[ Time : 0.032s | 17 Queries | GZIP : Off ]

Торрент трекер RUTOR.IN, Не можете зайти на rutor.org? Какой новый адрес рутор? Какое зеркало рутор? Не работает rutor.org и зеркала? Тогда наш торрент специально для вас. Rutor.in неофициальное зеркало rutor. В случае если у Вас заблокирован rutor или вдруг Вы не можете на него зайти, то Вы без труда сможете скачать бесплатно и без рекламы последние новинки кино, игр, сериалов и прочего у нас, на Rutor.in. Не нужно использовать прокси, чтобы зайти на рутор, достаточно воспользоваться нашим ресурсом. Все новые фильмы, игры, сериалы, книги и музыка за 2013 и 2014 годы через торрент бесплатно. Скачивайте фильмы в хорошем качестве, игры для пк, xbox, playstation без регистрации. У нас вы найдете новые Зарубежные сериалы и Русские сериалы 2013, 2014, 2015 годов. Оставайтесь с нами, качайте любимые фильмы, игры, сериалы, книги и музыку.