img image001 image001 image001 image001 image001 image001 image001 image001 image001 image001 image001 image001 image001 image001 image001

Planets Sun Sun Sun
Статистика раздачи
Автор: Nickolas3434 | Размер: 42.82 ГБ | Добавлен: 13 апр 2014
Раздают: 8    Качают: 57
Скачать торрент
Скачать торрент
Описание торрента

СообщениеДобавлено: 13 апр 2014 


Страна: Россия / Мармот-фильм
Жанр: драма
Год выпуска: 2013
Продолжительность: 01:12:12 + 00:55:29 + 00:53:57 + 00:53:10 + 00:54:45 + 00:53:34 + 00:54:41 + 00:54:28 + 00:54:00 + 00:55:33 + 00:53:16 + 01:06:19

Перевод: не требуется
Cубтитры: нет
Оригинальная аудиодорожка: русский

Режиссер: Валерий Тодоровский

В ролях: Евгений Цыганов, Александр Яценко, Анна Чиповская, Виктория Исакова, Михаил Ефремов, Светлана Колпакова, Яна Сексте, Нина Дворжецкая, Павел Деревянко, Евгений Волоцкий...

Описание: Студия «Мосфильм», 1961 год. Виктор Хрусталев — молодой талантливый оператор. Однажды он выпивал со своим другом-сценаристом Костиком в общаге ВГИКа. И нужно же было такому случиться: Костя выпал из окна и погиб. После его смерти он обнаруживает сценарий, который не был в свое время утвержден, и понимает, что это совершенно чумовая вещь. Он мечтает снять по этому сценарию фильм.
На похоронах он встречается с режиссером Егором Мячиным. И вскоре им подвернулась возможность вместе поучаствовать на съемках картины под названием «Девушка и бригадир». Присутствует в картине и любовная интрига. Виктор и Егор поочередно встречаются со студенткой химфака МГУ Марьяной, которая попадает на их же картину в качестве главной актрисы. Чтобы показать колорит тех времен, в завершении каждой серии звучат стихи и песни той эпохи.





Качество: BDRemux 1080i / Blu-ray 1080i
Формат: MKV

Видео: 1920x1080, MPEG-4 AVC Video 8789 kbps 1080i / 25 fps / 16:9 / High Profile 4.1
Аудио: Dolby Digital Audio Russian 192 kbps 2.0 / 48 kHz / 192 kbps / DN -4dB

Дополнительно: Все серии разбиты на главы, как на оригинальном Blu-ray диске.

Раздача от:
Общее
Полное имя : Ottepel.2013.O.BDVRemux.1080i.New-Team.mkv
Формат : Matroska
Версия формата : Version 4 / Version 2
Размер файла : 4,53 Гбайт
Продолжительность : 1 ч. 12 м.
Режим общего битрейта : Переменный
Общий поток : 8982 Кбит/сек
Дата кодирования : UTC 2014-04-11 20:55:26
Программа кодирования : mkvmerge v6.8.0 ('Theme for Great Cities') 64bit built on Mar 2 2014 21:34:26
Библиотека кодирования : libebml v1.3.0 + libmatroska v1.4.1

Видео
Идентификатор : 1
Формат : AVC
Формат/Информация : Advanced Video Codec
Профиль формата : High@L4.1
Параметр CABAC формата : Да
Параметр ReFrames формата : 4 кадра
Параметр GOP формата : M=3, N=25
Идентификатор кодека : V_MPEG4/ISO/AVC
Продолжительность : 1 ч. 12 м.
Вид битрейта : Переменный
Битрейт : 8612 Кбит/сек
Максимальный битрейт : 35,0 Мбит/сек
Ширина : 1920 пикселей
Высота : 1080 пикселей
Соотношение сторон : 16:9
Режим частоты кадров : Постоянный
Частота кадров : 25,000 кадров/сек
Стандарт вещания : PAL
Цветовое пространство : YUV
Субдискретизация насыщенности : 4:2:0
Битовая глубина : 8 бит
Тип развёртки : Чересстрочная
Порядок развёртки : Верхнее поле первое
Бит/(Пиксели*Кадры) : 0.166
Размер потока : 4,34 Гбайт (96%)
Default : Да
Forced : Нет
Основные цвета : BT.709
Характеристики трансфера : BT.709
Коэффициенты матрицы : BT.709

Аудио
Идентификатор : 2
Формат : AC-3
Формат/Информация : Audio Coding 3
Расширение режима : CM (complete main)
Параметр Endianness формата : Big
Идентификатор кодека : A_AC3
Продолжительность : 1 ч. 12 м.
Вид битрейта : Постоянный
Битрейт : 192 Кбит/сек
Каналы : 2 канала
Расположение каналов : Front: L R
Частота : 48,0 КГц
Битовая глубина : 16 бит
Метод сжатия : С потерями
Размер потока : 99,2 Мбайт (2%)
Язык : Russian
Default : Да
Forced : Нет

Меню
00:00:00.000 : en:00:00:00.000
00:10:12.880 : en:00:10:12.880
00:18:52.119 : en:00:18:52.119
00:29:15.880 : en:00:29:15.880
00:39:28.160 : en:00:39:28.160
00:50:51.920 : en:00:50:51.920
01:00:10.720 : en:01:00:10.720





   Похожие торренты   Торрент   Размер 
В этой теме нет новых непрочитанных сообщений. Оттепель [01-12 из 12] (2013) Blu-ray 1080i от New-Team | лицензия

11 | 68

45.74 ГБ

В этой теме нет новых непрочитанных сообщений. Оттепель [01-12 из 12] (2013) HDTV 1080i от Generalfilm

18 | 8

29.14 ГБ

В этой теме нет новых непрочитанных сообщений. Оттепель [01-12 из 12] (2013) BDRip-AVC от New-Team | лицензия

169 | 95

11.43 ГБ

В этой теме нет новых непрочитанных сообщений. Оттепель [01-12 из 12] (2013) 4xDVD9 R5 от New-Team | лицензия

22 | 19

27.9 ГБ

В этой теме нет новых непрочитанных сообщений. Оттепель [01-12 из 12] (2013) BDRip от New-Team | лицензия

578 | 185

7.34 ГБ

В этой теме нет новых непрочитанных сообщений. Starперцы / Last Vegas (2013) BDRemux 1080i от New-Team | D | лицензия

70 | 24

21.02 ГБ

В этой теме нет новых непрочитанных сообщений. 12 лет рабства / 12 Years a Slave (2013) BDRemux 1080i от New-Team | D | лицензия

111 | 64

12.87 ГБ




Вы не можете начинать темы
Вы не можете отвечать на сообщения
Вы не можете редактировать свои сообщения
Вы не можете удалять свои сообщения
Вы не можете добавлять вложения

Перейти:  
Для Мосгорсуда, Роскомнадзора и рекламодателей: mosgorsud-torrent[собачка]yandex.ru
 Вход
ppkBB3cker v.2 © 2008-2014 @ PPK
[ Time : 0.066s | 15 Queries | GZIP : Off ]

Торрент трекер RUTOR.IN, Не можете зайти на rutor.org? Какой новый адрес рутор? Какое зеркало рутор? Не работает rutor.org и зеркала? Тогда наш торрент специально для вас. Rutor.in неофициальное зеркало rutor. В случае если у Вас заблокирован rutor или вдруг Вы не можете на него зайти, то Вы без труда сможете скачать бесплатно и без рекламы последние новинки кино, игр, сериалов и прочего у нас, на Rutor.in. Не нужно использовать прокси, чтобы зайти на рутор, достаточно воспользоваться нашим ресурсом. Все новые фильмы, игры, сериалы, книги и музыка за 2013 и 2014 годы через торрент бесплатно. Скачивайте фильмы в хорошем качестве, игры для пк, xbox, playstation без регистрации. У нас вы найдете новые Зарубежные сериалы и Русские сериалы 2013, 2014, 2015 годов. Оставайтесь с нами, качайте любимые фильмы, игры, сериалы, книги и музыку.