img image001 image001 image001 image001 image001 image001 image001 image001 image001 image001 image001 image001 image001 image001 image001

Planets Sun Sun Sun
Статистика раздачи
Автор: Nickolas3434 | Размер: 7.76 ГБ | Добавлен: 13 апр 2014
Раздают: 46    Качают: 45
Скачать торрент
Скачать торрент
Описание торрента

СообщениеДобавлено: 13 апр 2014 

Информация о фильме
Название: Мушкетеры
Оригинальное название: The Musketeers
Год выхода: 2014
Жанр: Драма, приключения, костюмированный
Режиссер: Тоби Хэйнс, Фэррен Блэкберн, Ричард Кларк
В ролях: Люк Паскуалино, Том Бёрк, Ховард Чарльз, Сантьяго Кабрера, Александра Доулинг, Питер Капальди, Райан Гейдж, Мэйми МакКой, Хьюго Спир, Шарлотта Хоуп, Джулиан Бастида, Эмили Бичем, Филип Броди, Кевин Кларк, Джей Джей Филд, Тамла Кари, Эбигейл Райс, Джеймс Кэллис, Шон Сернов, Фиона Глэскотт, Джим Хай, Энтон Лессер, Саймон Микок, Стюарт Мур, Анна Скеллерн, Эшли Уолтерс, Власта Сваткова

О фильме:
Мушкетеры собираются на улицах Парижа в семнадцатом веке, где закон и порядок являются больше идеей, чем реальностью. Личные телохранители короля Людовика XIII, Атос, Арамис и Портос решительно стоят за социальную справедливость, за честь, за доблесть, так же за любовь — и за острые ощущения.



Страна: Великобритания
Студия: BBC One, BBC America
Продолжительность: 10 х ~00:57:00
Перевод: Профессиональный (многоголосый, закадровый) [NewStudio]

Файл
Формат: AVI
Качество: WEB-DLRip
Видео: XviD, 720x400, ~1804 kbps, 25.000 fps
Звук: AC3, 48.0 KHz, 2 ch, 192 Kbps
Субтитры: Нет

Семпл


General
Complete name : E:KinoMushketjory.XviD.GeneralfilmMushketjory.S01.2014.XviD.WEB-DLRip.GeneralfilmMushketjory.s01e01.2014.XviD.WEB-DLRip.Generalfilm.avi
Format : AVI
Format/Info : Audio Video Interleave
File size : 847 MiB
Duration : 59mn 1s
Overall bit rate : 2 005 Kbps
Writing application : VirtualDubMod 1.5.10.3 | www.virtualdub-fr.org || (build 2550/release)
Writing library : VirtualDubMod build 2550/release

Video
ID : 0
Format : MPEG-4 Visual
Format profile : Advanced Simple@L5
Format settings, BVOP : 2
Format settings, QPel : No
Format settings, GMC : No warppoints
Format settings, Matrix : Default (H.263)
Codec ID : XVID
Codec ID/Hint : XviD
Duration : 59mn 1s
Bit rate : 1 804 Kbps
Width : 720 pixels
Height : 400 pixels
Display aspect ratio : 16:9
Frame rate : 25.000 fps
Color space : YUV
Chroma subsampling : 4:2:0
Bit depth : 8 bits
Scan type : Progressive
Compression mode : Lossy
Bits/(Pixel*Frame) : 0.251
Stream size : 761 MiB (90%)
Writing library : XviD 1.2.1 (UTC 2008-12-04)

Audio
ID : 1
Format : AC-3
Format/Info : Audio Coding 3
Mode extension : CM (complete main)
Format settings, Endianness : Big
Codec ID : 2000
Duration : 59mn 1s
Bit rate mode : Constant
Bit rate : 192 Kbps
Channel count : 2 channels
Channel positions : Front: L R
Sampling rate : 48.0 KHz
Bit depth : 16 bits
Compression mode : Lossy
Stream size : 81.1 MiB (10%)
Alignment : Split accross interleaves
Interleave, duration : 40 ms (1.00 video frame)
Interleave, preload duration : 500 ms

Релиз от:



   Похожие торренты   Торрент   Размер 
В этой теме нет новых непрочитанных сообщений. Мушкетеры / The Musketeers [S01] (2014) WEB-DLRip от Generalfilm | КПК | NewStudio

68 | 32

2.44 ГБ

В этой теме нет новых непрочитанных сообщений. Мушкетеры / The Musketeers [S01] (2014) WEB-DLRip | NewStudio

517 | 844

6.84 ГБ

В этой теме нет новых непрочитанных сообщений. Мушкетеры / The Musketeers [S01] (2014) WEB-DLRip-AVC | NewStudio

51 | 39

8.78 ГБ

В этой теме нет новых непрочитанных сообщений. Мушкетеры / The Musketeers [S01] (2014) WEB-DLRip-AVC | NewStudio

9 | 42

8.78 ГБ

В этой теме нет новых непрочитанных сообщений. Мушкетеры / The Musketeers [S01] (2014) WEB-DLRip-AVC 1080p l NewStudio

11 | 53

22.6 ГБ

В этой теме нет новых непрочитанных сообщений. Мушкетеры / The Musketeers [01х01-08 из 10] (2014) WEB-DLRip | NewStudio

126 | 316

5.47 ГБ

В этой теме нет новых непрочитанных сообщений. Мушкетеры / The Musketeers [s01х01-08 из 10] (2014) WEB-DLRip-AVC | NewStudio

9 | 14

7.02 ГБ




Вы не можете начинать темы
Вы не можете отвечать на сообщения
Вы не можете редактировать свои сообщения
Вы не можете удалять свои сообщения
Вы не можете добавлять вложения

Перейти:  
Для Мосгорсуда, Роскомнадзора и рекламодателей: mosgorsud-torrent[собачка]yandex.ru
 Вход
ppkBB3cker v.2 © 2008-2014 @ PPK
[ Time : 0.049s | 15 Queries | GZIP : Off ]

Торрент трекер RUTOR.IN, Не можете зайти на rutor.org? Какой новый адрес рутор? Какое зеркало рутор? Не работает rutor.org и зеркала? Тогда наш торрент специально для вас. Rutor.in неофициальное зеркало rutor. В случае если у Вас заблокирован rutor или вдруг Вы не можете на него зайти, то Вы без труда сможете скачать бесплатно и без рекламы последние новинки кино, игр, сериалов и прочего у нас, на Rutor.in. Не нужно использовать прокси, чтобы зайти на рутор, достаточно воспользоваться нашим ресурсом. Все новые фильмы, игры, сериалы, книги и музыка за 2013 и 2014 годы через торрент бесплатно. Скачивайте фильмы в хорошем качестве, игры для пк, xbox, playstation без регистрации. У нас вы найдете новые Зарубежные сериалы и Русские сериалы 2013, 2014, 2015 годов. Оставайтесь с нами, качайте любимые фильмы, игры, сериалы, книги и музыку.