img image001 image001 image001 image001 image001 image001 image001 image001 image001 image001 image001 image001 image001 image001 image001

Planets Sun Sun Sun
Статистика раздачи
Автор: Nickolas3434 | Размер: 2.44 ГБ | Добавлен: 13 апр 2014
Раздают: 68    Качают: 32
Скачать торрент
Скачать торрент
Описание торрента

СообщениеДобавлено: 13 апр 2014 

Информация о фильме
Название: Мушкетеры
Оригинальное название: The Musketeers
Год выхода: 2014
Жанр: Драма, приключения, костюмированный
Режиссер: Тоби Хэйнс, Фэррен Блэкберн, Ричард Кларк
В ролях: Люк Паскуалино, Том Бёрк, Ховард Чарльз, Сантьяго Кабрера, Александра Доулинг, Питер Капальди, Райан Гейдж, Мэйми МакКой, Хьюго Спир, Шарлотта Хоуп, Джулиан Бастида, Эмили Бичем, Филип Броди, Кевин Кларк, Джей Джей Филд, Тамла Кари, Эбигейл Райс, Джеймс Кэллис, Шон Сернов, Фиона Глэскотт, Джим Хай, Энтон Лессер, Саймон Микок, Стюарт Мур, Анна Скеллерн, Эшли Уолтерс, Власта Сваткова

О фильме:
Мушкетеры собираются на улицах Парижа в семнадцатом веке, где закон и порядок являются больше идеей, чем реальностью. Личные телохранители короля Людовика XIII, Атос, Арамис и Портос решительно стоят за социальную справедливость, за честь, за доблесть, так же за любовь — и за острые ощущения.



Страна: Великобритания
Студия: BBC One, BBC America
Продолжительность: 10 х ~00:57:00
Перевод: Профессиональный (многоголосый, закадровый) [NewStudio]

Файл
Формат: MP4
Качество: WEB-DLRip | КПК
Видео: MPEG-4 AVC (x264), 640x360, ~500 kbps, 25.000 fps
Аудио: AAC LC, 48.0 KHz, 2 ch, 128 Kbps
Субтитры: Нет

Семпл


Complete name : E:KinoMushketjory.AVC.KPK.GeneralfilmMushketjory.S01.2014.AVC.WEB-DLRip.KPK.GeneralfilmMushketjory.s01e04.2014.AVC.WEB-DLRip.KPK.Generalfilm.mp4
Format : MPEG-4
Format profile : Base Media
Codec ID : isom
File size : 248 MiB
Duration : 54mn 58s
Overall bit rate mode : Variable
Overall bit rate : 631 Kbps
Encoded date : UTC 2014-04-03 17:04:32
Tagged date : UTC 2014-04-03 17:04:32

Video
ID : 1
Format : AVC
Format/Info : Advanced Video Codec
Format profile : Baseline@L4.1
Format settings, CABAC : No
Format settings, ReFrames : 6 frames
Codec ID : avc1
Codec ID/Info : Advanced Video Coding
Duration : 54mn 57s
Bit rate : 500 Kbps
Maximum bit rate : 3 308 Kbps
Width : 640 pixels
Height : 360 pixels
Display aspect ratio : 16:9
Frame rate mode : Constant
Frame rate : 25.000 fps
Color space : YUV
Chroma subsampling : 4:2:0
Bit depth : 8 bits
Scan type : Progressive
Bits/(Pixel*Frame) : 0.087
Stream size : 197 MiB (79%)
Writing library : x264 core 125 r2200 999b753
Encoding settings : cabac=0 / ref=6 / deblock=1:-1:-1 / analyse=0x1:0x111 / me=umh / subme=7 / psy=1 / psy_rd=1.00:0.00 / mixed_ref=0 / me_range=16 / chroma_me=1 / trellis=1 / 8x8dct=0 / cqm=0 / deadzone=21,11 / fast_pskip=0 / chroma_qp_offset=-2 / threads=12 / lookahead_threads=2 / sliced_threads=0 / nr=0 / decimate=1 / interlaced=0 / bluray_compat=0 / constrained_intra=0 / bframes=0 / weightp=0 / keyint=250 / keyint_min=25 / scenecut=40 / intra_refresh=0 / rc_lookahead=60 / rc=2pass / mbtree=1 / bitrate=500 / ratetol=1.0 / qcomp=0.60 / qpmin=0 / qpmax=69 / qpstep=4 / cplxblur=20.0 / qblur=0.5 / ip_ratio=1.40 / aq=1:1.00
Encoded date : UTC 2014-04-03 17:04:32
Tagged date : UTC 2014-04-03 17:04:37

Audio
ID : 2
Format : AAC
Format/Info : Advanced Audio Codec
Format profile : LC
Codec ID : 40
Duration : 54mn 58s
Bit rate mode : Variable
Bit rate : 128 Kbps
Maximum bit rate : 147 Kbps
Channel count : 2 channels
Channel positions : Front: L R
Sampling rate : 48.0 KHz
Compression mode : Lossy
Stream size : 50.3 MiB (20%)
Encoded date : UTC 2014-04-03 17:04:36
Tagged date : UTC 2014-04-03 17:04:37

Релиз от:



   Похожие торренты   Торрент   Размер 
В этой теме нет новых непрочитанных сообщений. Мушкетеры / The Musketeers [S01] (2014) WEB-DLRip от Generalfilm | NewStudio

46 | 45

7.76 ГБ

В этой теме нет новых непрочитанных сообщений. Мушкетеры / The Musketeers [S01] (2014) WEB-DLRip-AVC | NewStudio

9 | 42

8.78 ГБ

В этой теме нет новых непрочитанных сообщений. Мушкетеры / The Musketeers [S01] (2014) WEB-DLRip | NewStudio

517 | 844

6.84 ГБ

В этой теме нет новых непрочитанных сообщений. Мушкетеры / The Musketeers [S01] (2014) WEB-DLRip-AVC | NewStudio

51 | 39

8.78 ГБ

В этой теме нет новых непрочитанных сообщений. Мушкетеры / The Musketeers [01х01-07 из 10] (2014) WEB-DLRip | NewStudio

87 | 466

4.79 ГБ

В этой теме нет новых непрочитанных сообщений. Мушкетеры / The Musketeers [01х01-06 из 10] (2014) WEB-DLRip | NewStudio

96 | 332

4.1 ГБ

В этой теме нет новых непрочитанных сообщений. Мушкетеры / The Musketeers [01х01-09 из 10] (2014) WEB-DLRip | NewStudio

149 | 307

6.15 ГБ




Вы не можете начинать темы
Вы не можете отвечать на сообщения
Вы не можете редактировать свои сообщения
Вы не можете удалять свои сообщения
Вы не можете добавлять вложения

Перейти:  
Для Мосгорсуда, Роскомнадзора и рекламодателей: mosgorsud-torrent[собачка]yandex.ru
 Вход
ppkBB3cker v.2 © 2008-2014 @ PPK
[ Time : 0.601s | 15 Queries | GZIP : Off ]

Торрент трекер RUTOR.IN, Не можете зайти на rutor.org? Какой новый адрес рутор? Какое зеркало рутор? Не работает rutor.org и зеркала? Тогда наш торрент специально для вас. Rutor.in неофициальное зеркало rutor. В случае если у Вас заблокирован rutor или вдруг Вы не можете на него зайти, то Вы без труда сможете скачать бесплатно и без рекламы последние новинки кино, игр, сериалов и прочего у нас, на Rutor.in. Не нужно использовать прокси, чтобы зайти на рутор, достаточно воспользоваться нашим ресурсом. Все новые фильмы, игры, сериалы, книги и музыка за 2013 и 2014 годы через торрент бесплатно. Скачивайте фильмы в хорошем качестве, игры для пк, xbox, playstation без регистрации. У нас вы найдете новые Зарубежные сериалы и Русские сериалы 2013, 2014, 2015 годов. Оставайтесь с нами, качайте любимые фильмы, игры, сериалы, книги и музыку.