img image001 image001 image001 image001 image001 image001 image001 image001 image001 image001 image001 image001 image001 image001 image001

Planets Sun Sun Sun
Статистика раздачи
Автор: Nickolas3434 | Размер: 7.34 ГБ | Добавлен: 14 апр 2014
Раздают: 614    Качают: 189
Скачать торрент
Скачать торрент
Описание торрента

СообщениеДобавлено: 14 апр 2014 


Страна: Россия / Мармот-фильм
Жанр: драма
Год выпуска: 2013
Продолжительность: 01:12:12 + 00:55:29 + 00:53:57 + 00:53:10 + 00:54:45 + 00:53:34 + 00:54:41 + 00:54:28 + 00:54:00 + 00:55:33 + 00:53:16 + 01:06:19

Перевод: не требуется
Cубтитры: нет
Оригинальная аудиодорожка: русский

Режиссер: Валерий Тодоровский

В ролях: Евгений Цыганов, Александр Яценко, Анна Чиповская, Виктория Исакова, Михаил Ефремов, Светлана Колпакова, Яна Сексте, Нина Дворжецкая, Павел Деревянко, Евгений Волоцкий...

Описание: Студия «Мосфильм», 1961 год. Виктор Хрусталев — молодой талантливый оператор. Однажды он выпивал со своим другом-сценаристом Костиком в общаге ВГИКа. И нужно же было такому случиться: Костя выпал из окна и погиб. После его смерти он обнаруживает сценарий, который не был в свое время утвержден, и понимает, что это совершенно чумовая вещь. Он мечтает снять по этому сценарию фильм.
На похоронах он встречается с режиссером Егором Мячиным. И вскоре им подвернулась возможность вместе поучаствовать на съемках картины под названием «Девушка и бригадир». Присутствует в картине и любовная интрига. Виктор и Егор поочередно встречаются со студенткой химфака МГУ Марьяной, которая попадает на их же картину в качестве главной актрисы. Чтобы показать колорит тех времен, в завершении каждой серии звучат стихи и песни той эпохи.






Качество: BDRip / Blu-ray 1080i
Формат: AVI

Видео: 720x400 (16:8), 25.000 fps, XViD, ~1340 kbps avg, 0.186 bit/pix
Аудио: Russian: 48 kHz, Dolby AC3, 2 ch, 192 kbps Const

Раздача от:
Общее
Полное имя : Ottepel.2013.BDRip._[New-Team]_by_avproh1.avi
Формат : AVI
Формат/Информация : Audio Video Interleave
Размер файла : 797 Мбайт
Продолжительность : 1 ч. 12 м.
Общий поток : 1543 Кбит/сек
Программа кодирования : VirtualDubMod 1.5.10.3 | www.virtualdub-fr.org || (build 2550/release)
Библиотека кодирования : VirtualDubMod build 2550/release

Видео
Идентификатор : 0
Формат : MPEG-4 Visual
Профиль формата : Advanced Simple@L5
Параметр BVOP формата : 1
Параметр QPel формата : Нет
Параметр GMC формата : Без точки перехода
Параметр матрицы формата : Выборочная
Идентификатор кодека : XVID
Идентификатор кодека/Подсказка : XviD
Продолжительность : 1 ч. 12 м.
Битрейт : 1341 Кбит/сек
Ширина : 720 пикселей
Высота : 400 пикселей
Соотношение сторон : 16:9
Частота кадров : 25,000 кадров/сек
Цветовое пространство : YUV
Субдискретизация насыщенности : 4:2:0
Битовая глубина : 8 бит
Тип развёртки : Прогрессивная
Метод сжатия : С потерями
Бит/(Пиксели*Кадры) : 0.186
Размер потока : 693 Мбайт (87%)
Библиотека кодирования : XviD 73

Аудио
Идентификатор : 1
Формат : AC-3
Формат/Информация : Audio Coding 3
Расширение режима : CM (complete main)
Параметр Endianness формата : Big
Идентификатор кодека : 2000
Продолжительность : 1 ч. 12 м.
Вид битрейта : Постоянный
Битрейт : 192 Кбит/сек
Каналы : 2 канала
Расположение каналов : Front: L R
Частота : 48,0 КГц
Битовая глубина : 16 бит
Метод сжатия : С потерями
Размер потока : 99,2 Мбайт (12%)
Выравнивание : Разделение по промежуткам
Продолжительность промежутка : 40 мс. (1,00 видеокадр)
Время предзагрузки промежутка : 500 мс.





   Похожие торренты   Торрент   Размер 
В этой теме нет новых непрочитанных сообщений. Оттепель [01-12 из 12] (2013) BDRip-AVC от New-Team | лицензия

186 | 86

11.43 ГБ

В этой теме нет новых непрочитанных сообщений. Оттепель [01-12 из 12] (2013) Blu-ray 1080i от New-Team | лицензия

12 | 69

45.74 ГБ

В этой теме нет новых непрочитанных сообщений. Оттепель [01-12 из 12] (2013) 4xDVD9 R5 от New-Team | лицензия

25 | 20

27.9 ГБ

В этой теме нет новых непрочитанных сообщений. Оттепель [01-12 из 12] (2013) BDRemux 1080i от New-Team

8 | 59

42.82 ГБ

В этой теме нет новых непрочитанных сообщений. Оттепель [01-12 из 12] (2013) HDTVRip | iPhone

65 | 16

3.5 ГБ

В этой теме нет новых непрочитанных сообщений. Оттепель [01-12 из 12] (2013) HDTVRip от MediaClub

327 | 52

9.47 ГБ

В этой теме нет новых непрочитанных сообщений. Оттепель [01-12 серии из 12] (2013) SATRip

216 | 30

7.66 ГБ




Вы не можете начинать темы
Вы не можете отвечать на сообщения
Вы не можете редактировать свои сообщения
Вы не можете удалять свои сообщения
Вы не можете добавлять вложения

Перейти:  
Для Мосгорсуда, Роскомнадзора и рекламодателей: mosgorsud-torrent[собачка]yandex.ru
 Вход
ppkBB3cker v.2 © 2008-2014 @ PPK
[ Time : 0.029s | 15 Queries | GZIP : Off ]

Торрент трекер RUTOR.IN, Не можете зайти на rutor.org? Какой новый адрес рутор? Какое зеркало рутор? Не работает rutor.org и зеркала? Тогда наш торрент специально для вас. Rutor.in неофициальное зеркало rutor. В случае если у Вас заблокирован rutor или вдруг Вы не можете на него зайти, то Вы без труда сможете скачать бесплатно и без рекламы последние новинки кино, игр, сериалов и прочего у нас, на Rutor.in. Не нужно использовать прокси, чтобы зайти на рутор, достаточно воспользоваться нашим ресурсом. Все новые фильмы, игры, сериалы, книги и музыка за 2013 и 2014 годы через торрент бесплатно. Скачивайте фильмы в хорошем качестве, игры для пк, xbox, playstation без регистрации. У нас вы найдете новые Зарубежные сериалы и Русские сериалы 2013, 2014, 2015 годов. Оставайтесь с нами, качайте любимые фильмы, игры, сериалы, книги и музыку.