img image001 image001 image001 image001 image001 image001 image001 image001 image001 image001 image001 image001 image001 image001 image001

Planets Sun Sun Sun
Статистика раздачи
Автор: Nickolas3434 | Размер: 11.43 ГБ | Добавлен: 14 апр 2014
Раздают: 186    Качают: 86
Скачать торрент
Скачать торрент
Описание торрента

СообщениеДобавлено: 14 апр 2014 


Страна: Россия / Мармот-фильм
Жанр: драма
Год выпуска: 2013
Продолжительность: 01:12:12 + 00:55:29 + 00:53:57 + 00:53:10 + 00:54:45 + 00:53:34 + 00:54:41 + 00:54:28 + 00:54:00 + 00:55:33 + 00:53:16 + 01:06:19

Перевод: не требуется
Cубтитры: нет
Оригинальная аудиодорожка: русский

Режиссер: Валерий Тодоровский

В ролях: Евгений Цыганов, Александр Яценко, Анна Чиповская, Виктория Исакова, Михаил Ефремов, Светлана Колпакова, Яна Сексте, Нина Дворжецкая, Павел Деревянко, Евгений Волоцкий...

Описание: Студия «Мосфильм», 1961 год. Виктор Хрусталев — молодой талантливый оператор. Однажды он выпивал со своим другом-сценаристом Костиком в общаге ВГИКа. И нужно же было такому случиться: Костя выпал из окна и погиб. После его смерти он обнаруживает сценарий, который не был в свое время утвержден, и понимает, что это совершенно чумовая вещь. Он мечтает снять по этому сценарию фильм.
На похоронах он встречается с режиссером Егором Мячиным. И вскоре им подвернулась возможность вместе поучаствовать на съемках картины под названием «Девушка и бригадир». Присутствует в картине и любовная интрига. Виктор и Егор поочередно встречаются со студенткой химфака МГУ Марьяной, которая попадает на их же картину в качестве главной актрисы. Чтобы показать колорит тех времен, в завершении каждой серии звучат стихи и песни той эпохи.






Качество: BDRip-AVC / Blu-ray 1080i
Формат: MKV

Видео: 1024x576 (16:9), 25.000 fps, MPEG-4 AVC, ~2402 kbps avg, 0.150 bit/pix
Аудио: Russian: 48 kHz, Dolby AC3, 2 ch, 192 kbps Const

Дополнительно: Все серии разбиты на главы, как на оригинальном Blu-ray диске.

Раздача от:
Общее
Полное имя : Ottepel.2013.BDRip-AVC_[New-Team]_by_avproh1.mkv
Формат : Matroska
Версия формата : Version 4 / Version 2
Размер файла : 1,21 Гбайт
Продолжительность : 1 ч. 12 м.
Общий поток : 2402 Кбит/сек
Дата кодирования : UTC 2014-04-13 19:59:14
Программа кодирования : mkvmerge v6.8.0 ('Theme for Great Cities') 64bit built on Mar 2 2014 21:34:26
Библиотека кодирования : libebml v1.3.0 + libmatroska v1.4.1

Видео
Идентификатор : 1
Формат : AVC
Формат/Информация : Advanced Video Codec
Профиль формата : High@L4.1
Параметр CABAC формата : Да
Параметр ReFrames формата : 8 кадров
Идентификатор кодека : V_MPEG4/ISO/AVC
Продолжительность : 1 ч. 12 м.
Битрейт : 2210 Кбит/сек
Ширина : 1024 пикселя
Высота : 576 пикселей
Соотношение сторон : 16:9
Режим частоты кадров : Постоянный
Частота кадров : 25,000 кадров/сек
Цветовое пространство : YUV
Субдискретизация насыщенности : 4:2:0
Битовая глубина : 8 бит
Тип развёртки : Прогрессивная
Бит/(Пиксели*Кадры) : 0.150
Размер потока : 1,09 Гбайт (90%)
Библиотека кодирования : x264 core 138 r2356 a1d3d17
Настройки программы : cabac=1 / ref=8 / deblock=1:-3:-2 / analyse=0x3:0x113 / me=umh / subme=10 / psy=1 / psy_rd=1.00:0.05 / mixed_ref=1 / me_range=32 / chroma_me=1 / trellis=2 / 8x8dct=1 / cqm=0 / deadzone=21,11 / fast_pskip=1 / chroma_qp_offset=-3 / threads=9 / lookahead_threads=1 / sliced_threads=0 / nr=0 / decimate=0 / interlaced=0 / bluray_compat=0 / constrained_intra=0 / bframes=8 / b_pyramid=2 / b_adapt=2 / b_bias=0 / direct=3 / weightb=1 / open_gop=0 / weightp=2 / keyint=250 / keyint_min=25 / scenecut=40 / intra_refresh=0 / rc_lookahead=40 / rc=2pass / mbtree=1 / bitrate=2210 / ratetol=1.0 / qcomp=0.60 / qpmin=0 / qpmax=69 / qpstep=4 / cplxblur=20.0 / qblur=0.5 / ip_ratio=1.40 / aq=1:1.00
Язык : Russian
Default : Да
Forced : Нет

Аудио
Идентификатор : 2
Формат : AC-3
Формат/Информация : Audio Coding 3
Расширение режима : CM (complete main)
Параметр Endianness формата : Big
Идентификатор кодека : A_AC3
Продолжительность : 1 ч. 12 м.
Вид битрейта : Постоянный
Битрейт : 192 Кбит/сек
Каналы : 2 канала
Расположение каналов : Front: L R
Частота : 48,0 КГц
Битовая глубина : 16 бит
Метод сжатия : С потерями
Размер потока : 99,2 Мбайт (8%)
Язык : Russian
Default : Да
Forced : Нет

Меню
00:00:00.000 : en:00:00:00.000
00:10:12.880 : en:00:10:12.880
00:18:52.119 : en:00:18:52.119
00:29:15.880 : en:00:29:15.880
00:39:28.160 : en:00:39:28.160
00:50:51.920 : en:00:50:51.920
01:00:10.720 : en:01:00:10.720





   Похожие торренты   Торрент   Размер 
В этой теме нет новых непрочитанных сообщений. Оттепель [01-12 из 12] (2013) BDRip от New-Team | лицензия

614 | 189

7.34 ГБ

В этой теме нет новых непрочитанных сообщений. Оттепель [01-12 из 12] (2013) Blu-ray 1080i от New-Team | лицензия

12 | 69

45.74 ГБ

В этой теме нет новых непрочитанных сообщений. Оттепель [01-12 из 12] (2013) 4xDVD9 R5 от New-Team | лицензия

25 | 20

27.9 ГБ

В этой теме нет новых непрочитанных сообщений. Оттепель [01-12 из 12] (2013) BDRemux 1080i от New-Team

8 | 59

42.82 ГБ

В этой теме нет новых непрочитанных сообщений. Оттепель [01-12 из 12] (2013) HDTVRip | iPhone

65 | 16

3.5 ГБ

В этой теме нет новых непрочитанных сообщений. Оттепель [01-12 из 12] (2013) HDTVRip от MediaClub

327 | 52

9.47 ГБ

В этой теме нет новых непрочитанных сообщений. Оттепель [01-12 серии из 12] (2013) SATRip

216 | 30

7.66 ГБ




Вы не можете начинать темы
Вы не можете отвечать на сообщения
Вы не можете редактировать свои сообщения
Вы не можете удалять свои сообщения
Вы не можете добавлять вложения

Перейти:  
Для Мосгорсуда, Роскомнадзора и рекламодателей: mosgorsud-torrent[собачка]yandex.ru
 Вход
ppkBB3cker v.2 © 2008-2014 @ PPK
[ Time : 0.034s | 15 Queries | GZIP : On ]

Торрент трекер RUTOR.IN, Не можете зайти на rutor.org? Какой новый адрес рутор? Какое зеркало рутор? Не работает rutor.org и зеркала? Тогда наш торрент специально для вас. Rutor.in неофициальное зеркало rutor. В случае если у Вас заблокирован rutor или вдруг Вы не можете на него зайти, то Вы без труда сможете скачать бесплатно и без рекламы последние новинки кино, игр, сериалов и прочего у нас, на Rutor.in. Не нужно использовать прокси, чтобы зайти на рутор, достаточно воспользоваться нашим ресурсом. Все новые фильмы, игры, сериалы, книги и музыка за 2013 и 2014 годы через торрент бесплатно. Скачивайте фильмы в хорошем качестве, игры для пк, xbox, playstation без регистрации. У нас вы найдете новые Зарубежные сериалы и Русские сериалы 2013, 2014, 2015 годов. Оставайтесь с нами, качайте любимые фильмы, игры, сериалы, книги и музыку.