img image001 image001 image001 image001 image001 image001 image001 image001 image001 image001 image001 image001 image001 image001 image001

Planets Sun Sun Sun
Статистика раздачи
Автор: Nickolas3434 | Размер: 12.7 ГБ | Добавлен: 16 апр 2014
Раздают: 6    Качают: 17
Скачать торрент
Скачать торрент
Описание торрента

СообщениеДобавлено: 16 апр 2014 

Информация о фильме
Название: Друзья
Оригинальное название: Friends
Год выхода: 2000-2001
Жанр: Sitcom
Режиссер: David Crane, Marta Kauffman
В ролях: Jennifer Aniston, Courteney Cox Arquette, Lisa Kudrow, Matt LeBlanc, Matthew Perry, David Schwimmer

О фильме:
Главные герои — шестеро друзей — Рейчел, Моника, Фиби, Джоуи, Чендлер и Росс. Три девушки и три парня, которые дружат, живут по соседству, вместе убивают время и противостоят жестокой реальности, делятся своими секретами и иногда очень сильно влюбляются.
Сериал признан одним из лучших комедийных сериалов в истории американского телевидения и стал одним из наиболее заметных проектов 1990-х годов. Сама постановка и творческая группа получили множество наград, в том числе шесть премий «Эмми» и премию «Золотой глобус».

Страна: США
Студия: Канал NBC
Продолжительность: 24 x ∼22мин

Файл
Формат: m4v
Качество: BDRip-AVC
Видео: H.264, 1024x576 (16:9), ∼2900kbps, 23,976fps
Звук: AAC, 2 channels, 48.0 KHz, 160 kbps VBR
Аудио 1: Русский - профессиональный многоголосый закадровый
Аудио 2: Украинский - профессиональный многоголосый закадровый
Аудио 3: Английский - оригинал
Субтитры: русские, английские
Метатэги: Прописаны
Навигация по главам: есть

Раздача будет полезна пользователям iOS и OS X платформ.
При просмотре на Windows рекомендую пользоваться iTunes или VLC media player.


7 серия

x264 [info]: frame I:322 Avg QP:15.96 size: 88729 PSNR Mean Y:48.17 U:51.64 V:52.39 Avg:49.10 Global:48.27
x264 [info]: frame P:5792 Avg QP:19.43 size: 36020 PSNR Mean Y:44.57 U:49.44 V:50.17 Avg:45.69 Global:45.31
x264 [info]: frame B:25496 Avg QP:21.99 size: 12902 PSNR Mean Y:42.65 U:49.09 V:49.95 Avg:43.96 Global:43.39
x264 [info]: consecutive B-frames: 1.3% 0.5% 2.0% 11.9% 18.3% 51.6% 9.6% 2.1% 1.4% 1.5%
x264 [info]: mb I I16..4: 3.5% 79.2% 17.3%
x264 [info]: mb P I16..4: 0.9% 10.9% 1.4% P16..4: 37.8% 31.5% 13.9% 0.0% 0.0% skip: 3.6%
x264 [info]: mb B I16..4: 0.1% 1.2% 0.1% B16..8: 41.5% 12.5% 3.4% direct: 9.6% skip:31.6% L0:43.8% L1:44.8% BI:11.4%
x264 [info]: 8x8 transform intra:83.0% inter:62.3%
x264 [info]: coded y,uvDC,uvAC intra: 90.1% 73.6% 42.5% inter: 38.6% 18.3% 1.7%
x264 [info]: i16 v,h,dc,p: 58% 14% 8% 21%
x264 [info]: i8 v,h,dc,ddl,ddr,vr,hd,vl,hu: 14% 8% 7% 9% 13% 13% 12% 12% 12%
x264 [info]: i4 v,h,dc,ddl,ddr,vr,hd,vl,hu: 13% 9% 4% 8% 14% 15% 13% 12% 13%
x264 [info]: i8c dc,h,v,p: 37% 23% 25% 15%
x264 [info]: Weighted P-Frames: Y:3.0% UV:1.6%
x264 [info]: ref P L0: 39.8% 10.2% 21.9% 6.7% 7.4% 4.1% 4.8% 2.2% 2.9% 0.1% 0.0%
x264 [info]: ref B L0: 72.1% 13.5% 5.7% 3.3% 2.2% 1.9% 1.0% 0.4%
x264 [info]: ref B L1: 93.0% 7.0%
x264 [info]: SSIM Mean Y:0.9736051 (15.785db)
x264 [info]: PSNR Mean Y:43.060 U:49.182 V:50.018 Avg:44.327 Global:43.715 kb/s:3435.30

General
Format : MPEG-4
Format profile : Base Media / Version 2
Codec ID : mp42
File size : 618 MiB
Duration : 21mn 59s
Overall bit rate mode : Variable
Overall bit rate : 3 932 Kbps
Season : 7
Movie name : Friends
Album : Friends, Season 7
Part : 7
Track name/Position : 7
Track name/Total : 24
Performer : Friends
Genre : Comedy
ContentType : TV Show
Deion : The smash sitcom sensation continues the laughs with season seven! Beginning moments after Chandler proposes to Monica, the comical antics of TV’s favorite friends follow Chandler as he (unsuccessfully) tries to bond with his future father-in-law; Rachel as she gets a hunky assistant; Ross as he introduces his son to the "Holiday Armadillo;" Monica as she "deconstructs" a cookie to replicate a secret recipe; Phoebe as she shares the story of her "bikeless childhood”; and Joey, who is newly ordained on the Internet to preside over Monica and Chandler’s big wedding in the season finale. Join the festivities! Series stars Jennifer Aniston, Courteney Cox, Lisa Kudrow, Matt LeBlanc, Matthew Perry and David Schwimmer are "there for you," along with this season’s guest stars Jason Alexander, Hank Azaria, Kristin Davis, Morgan Fairchild, Gary Oldman, Denise Richards, Winona Ryder, Susan Sarandon, Kathleen Turner and Gabrielle Union.
Recorded date : 2001-09-10
Encoded date : UTC 2014-04-09 15:27:02
Tagged date : UTC 2014-04-14 07:01:31
Cover : Yes
Rating : None
TVNetworkName : NBC
Part_ID : 707
LongDeion : Ross discovers that his dissertation is in a section of the library where students go to have sex. Chandler's ex-girlfriend Janice manipulates Monica and Chandler into inviting her the wedding. Rachel and Phoebe meddle in Joey's relationship with Erin.
AppleStoreCountry : United States
AppleStoreCatalogID : 310707562
AlbumTitleID : 166638839
PlayListID : 310704829
ContentRating : us-tv|TV-14|500|

Video #1
ID : 1
Format : AVC
Format/Info : Advanced Video Codec
Format profile : High@L4.0
Format settings, CABAC : Yes
Format settings, ReFrames : 9 frames
Codec ID : avc1
Codec ID/Info : Advanced Video Coding
Duration : 21mn 58s
Bit rate : 3 435 Kbps
Width : 1 024 pixels
Height : 576 pixels
Display aspect ratio : 16:9
Frame rate mode : Variable
Frame rate : 23.976 fps
Minimum frame rate : 23.974 fps
Maximum frame rate : 23.981 fps
Color space : YUV
Chroma subsampling : 4:2:0
Bit depth : 8 bits
Scan type : Progressive
Bits/(Pixel*Frame) : 0.243
Stream size : 540 MiB (87%)
Writing library : x264 core 130 r2273 b3065e6
Encoding settings : cabac=1 / ref=9 / deblock=1:0:0 / analyse=0x3:0x113 / me=umh / subme=10 / psy=1 / psy_rd=1.00:0.00 / mixed_ref=1 / me_range=32 / chroma_me=1 / trellis=2 / 8x8dct=1 / cqm=0 / deadzone=21,11 / fast_pskip=1 / chroma_qp_offset=-2 / threads=6 / lookahead_threads=1 / sliced_threads=0 / nr=0 / decimate=1 / interlaced=0 / bluray_compat=0 / constrained_intra=0 / bframes=9 / b_pyramid=2 / b_adapt=2 / b_bias=0 / direct=1 / weightb=1 / open_gop=0 / weightp=2 / keyint=240 / keyint_min=24 / scenecut=40 / intra_refresh=0 / rc_lookahead=40 / rc=crf / mbtree=1 / crf=18.0 / qcomp=0.60 / qpmin=0 / qpmax=69 / qpstep=4 / ip_ratio=1.40 / aq=1:1.00
Language : English
Encoded date : UTC 2014-04-09 15:27:02
Tagged date : UTC 2014-04-09 16:48:51
Color primaries : BT.709
Transfer characteristics : BT.709
Matrix coefficients : BT.709

Video #2
ID : 6
Format : JPEG
Codec ID : jpeg
Duration : 21mn 57s
Bit rate mode : Variable
Bit rate : 1 312 bps
Width : 640 pixels
Height : 360 pixels
Display aspect ratio : 16:9
Frame rate mode : Variable
Frame rate : 0.003 fps
Minimum frame rate : 0.001 fps
Maximum frame rate : 0.027 fps
Color space : YUV
Chroma subsampling : 4:2:0
Bit depth : 8 bits
Compression mode : Lossy
Bits/(Pixel*Frame) : 1.898
Stream size : 214 KiB (0%)
Language : English
Encoded date : UTC 2014-04-10 09:50:37
Tagged date : UTC 2014-04-10 09:50:37

Audio #1
ID : 2
Format : AAC
Format/Info : Advanced Audio Codec
Format profile : LC
Codec ID : 40
Duration : 21mn 59s
Bit rate mode : Variable
Bit rate : 160 Kbps
Maximum bit rate : 198 Kbps
Channel(s) : 2 channels
Channel positions : Front: L R
Sampling rate : 48.0 KHz
Compression mode : Lossy
Stream size : 25.1 MiB (4%)
Language : Russian
Encoded date : UTC 2014-04-09 15:27:02
Tagged date : UTC 2014-04-09 16:48:50

Audio #2
ID : 3
Format : AAC
Format/Info : Advanced Audio Codec
Format profile : LC
Codec ID : 40
Duration : 21mn 58s
Bit rate mode : Variable
Bit rate : 160 Kbps
Maximum bit rate : 207 Kbps
Channel(s) : 2 channels
Channel positions : Front: L R
Sampling rate : 48.0 KHz
Compression mode : Lossy
Stream size : 25.1 MiB (4%)
Language : Ukrainian
Encoded date : UTC 2014-04-09 15:27:02
Tagged date : UTC 2014-04-09 16:48:50

Audio #3
ID : 4
Format : AAC
Format/Info : Advanced Audio Codec
Format profile : LC
Codec ID : 40
Duration : 21mn 59s
Bit rate mode : Variable
Bit rate : 160 Kbps
Maximum bit rate : 293 Kbps
Channel(s) : 2 channels
Channel positions : Front: L R
Sampling rate : 48.0 KHz
Compression mode : Lossy
Stream size : 25.1 MiB (4%)
Language : English
Encoded date : UTC 2014-04-09 15:27:02
Tagged date : UTC 2014-04-09 16:48:50

Text #1
ID : 7
Format : Timed Text
Muxing mode : sbtl
Codec ID : tx3g
Duration : 21mn 46s
Source duration : 21mn 46s
Bit rate mode : Variable
Bit rate : 128 bps
Stream size : 20.5 KiB (0%)
Source stream size : 20.5 KiB (0%)
Language : Russian
Encoded date : UTC 2014-04-14 07:01:06
Tagged date : UTC 2014-04-14 07:01:31

Text #2
ID : 8
Format : Timed Text
Muxing mode : sbtl
Codec ID : tx3g
Duration : 21mn 54s
Bit rate mode : Variable
Bit rate : 79 bps
Stream size : 12.7 KiB (0%)
Language : English
Encoded date : UTC 2014-04-14 07:01:06
Tagged date : UTC 2014-04-14 07:01:31

Menu
ID : 5
Codec ID : text
Duration : 21mn 57s
Language : English
Encoded date : UTC 2014-04-09 15:27:02
Tagged date : UTC 2014-04-09 16:48:50
Bit rate mode : CBR
00:00:00.000 : Chapter 1
00:02:08.378 : Chapter 2
00:09:41.580 : Chapter 3
00:21:20.487 : Chapter 4



   Похожие торренты   Торрент   Размер 
В этой теме нет новых непрочитанных сообщений. Друзья / Friends [S08] (2001-2002) BDRip-AVC | iPad

6 | 3

12.71 ГБ

В этой теме нет новых непрочитанных сообщений. Друзья / Friends [S07] (2000-2001) BDRip-AVC от HQCLUB

170 | 95

10.22 ГБ

В этой теме нет новых непрочитанных сообщений. Друзья / Friends [S07] (2000-2001) BDRip 720p

62 | 23

19.66 ГБ

В этой теме нет новых непрочитанных сообщений. Друзья / Friends [S03] (1996-1997) BDRip-AVC | iPad

10 | 5

16.12 ГБ

В этой теме нет новых непрочитанных сообщений. Друзья / Friends [S09] (2002-2003) BDRip-AVC | iPad

9 | 11

13.74 ГБ

В этой теме нет новых непрочитанных сообщений. Друзья / Friends [S02] (1995-1996) BDRip-AVC | iPad

16 | 5

14.87 ГБ

В этой теме нет новых непрочитанных сообщений. Друзья / Friends [S01] (1994-1995) BDRip-AVC | iPad

17 | 4

15.5 ГБ




Вы не можете начинать темы
Вы не можете отвечать на сообщения
Вы не можете редактировать свои сообщения
Вы не можете удалять свои сообщения
Вы не можете добавлять вложения

Перейти:  
Для Мосгорсуда, Роскомнадзора и рекламодателей: mosgorsud-torrent[собачка]yandex.ru
 Вход
ppkBB3cker v.2 © 2008-2014 @ PPK
[ Time : 0.056s | 15 Queries | GZIP : Off ]

Торрент трекер RUTOR.IN, Не можете зайти на rutor.org? Какой новый адрес рутор? Какое зеркало рутор? Не работает rutor.org и зеркала? Тогда наш торрент специально для вас. Rutor.in неофициальное зеркало rutor. В случае если у Вас заблокирован rutor или вдруг Вы не можете на него зайти, то Вы без труда сможете скачать бесплатно и без рекламы последние новинки кино, игр, сериалов и прочего у нас, на Rutor.in. Не нужно использовать прокси, чтобы зайти на рутор, достаточно воспользоваться нашим ресурсом. Все новые фильмы, игры, сериалы, книги и музыка за 2013 и 2014 годы через торрент бесплатно. Скачивайте фильмы в хорошем качестве, игры для пк, xbox, playstation без регистрации. У нас вы найдете новые Зарубежные сериалы и Русские сериалы 2013, 2014, 2015 годов. Оставайтесь с нами, качайте любимые фильмы, игры, сериалы, книги и музыку.