img image001 image001 image001 image001 image001 image001 image001 image001 image001 image001 image001 image001 image001 image001 image001

Planets Sun Sun Sun
Статистика раздачи
Автор: Nickolas3434 | Размер: 5.52 ГБ | Добавлен: 15 апр 2014
Раздают: 43    Качают: 47
Скачать торрент
Скачать торрент
Описание торрента

СообщениеДобавлено: 15 апр 2014 

Информация о фильме
Название: Иерихон
Оригинальное название: Jericho
Год выхода: 2006
Жанр: Укажите жанры, разделяя запятыми
Режиссер: Джон Тёртелтауб
В ролях: Скит Ульрих, Эшли Скотт, Спрэг Грэйден, Эрик Кнудсен, Ленни Джеймс, Джералд МакРэйни, Памела Рид, Кеннет Митчелл, Майкл Гэтсон, Брэл Бейер, Крис Крамер, Шошанна Штерн, Дарби Стенчфилд, Бет Грант

О фильме:
Ранним солнечным утром, когда ничто не предвещало беды, жители небольшого провинциального американского городка Иерихон в штате Канзас увидели на горизонте медленно, но зловеще растущее атомное облако. Им ещё только предстоит узнать, что в результате террористической ядерной атаки пострадали крупнейшие города 23 американских штатов. Хаос, царящий на улицах некогда спокойного городка, вызван страхом перед неизвестностью - жители Иерихона не знают, что именно произошло, насколько опасен взрыв и есть ли выжившие за пределами их города. Именно этот первобытный страх превращает Иерихон в подобие ада - полностью разрушенные системы связи с внешним миром, угроза радиоактивного заражения, отсутствие запаса продовольствия пугают людей и будят в некоторых гражданах панику, злость, ненависть, порой граничащие с безумием. Но чтобы выжить, жителям Иерихона нужно во что бы то ни стало держаться вместе и научиться жить заново.



Страна: США
Студия: CBS Paramount Network Television, Junction Entertainment
Продолжительность: 29 х ~ 00:45:00
Перевод: Профессиональный (многоголосый, закадровый) [ДТВ]

Файл
Формат: MP4
Качество: WEB-DLRip | КПК
Видео: MPEG-4 AVC (x264), 640x360, ~500 kbps, 23.976 fps
Аудио: AAC LC, 48.0 KHz, 2 ch, 128 Kbps
Субтитры: Нет

Семпл


Complete name : E:KinoIerihon.2006-2008.AVC.WEB-DLRip.KPK.GeneralfilmIerihon.S01.2006-2007.AVC.WEB-DLRip.KPK.GeneralfilmIerihon.s01e03.2006.AVC.WEB-DLRip.KPK.Generalfilm.mp4
Format : MPEG-4
Format profile : Base Media
Codec ID : isom
File size : 202 MiB
Duration : 44mn 48s
Overall bit rate mode : Variable
Overall bit rate : 630 Kbps
Encoded date : UTC 2014-03-11 09:52:21
Tagged date : UTC 2014-03-11 09:52:21

Video
ID : 1
Format : AVC
Format/Info : Advanced Video Codec
Format profile : Baseline@L4.1
Format settings, CABAC : No
Format settings, ReFrames : 6 frames
Codec ID : avc1
Codec ID/Info : Advanced Video Coding
Duration : 44mn 48s
Bit rate : 500 Kbps
Maximum bit rate : 2 750 Kbps
Width : 640 pixels
Height : 360 pixels
Display aspect ratio : 16:9
Frame rate mode : Constant
Frame rate : 23.976 fps
Color space : YUV
Chroma subsampling : 4:2:0
Bit depth : 8 bits
Scan type : Progressive
Bits/(Pixel*Frame) : 0.091
Stream size : 160 MiB (79%)
Writing library : x264 core 119 r2106 07efeb4
Encoding settings : cabac=0 / ref=6 / deblock=1:-1:-1 / analyse=0x1:0x111 / me=umh / subme=7 / psy=1 / psy_rd=1.00:0.00 / mixed_ref=0 / me_range=16 / chroma_me=1 / trellis=1 / 8x8dct=0 / cqm=0 / deadzone=21,11 / fast_pskip=0 / chroma_qp_offset=-2 / threads=3 / sliced_threads=0 / nr=0 / decimate=1 / interlaced=0 / bluray_compat=0 / constrained_intra=0 / bframes=0 / weightp=0 / keyint=250 / keyint_min=23 / scenecut=40 / intra_refresh=0 / rc_lookahead=60 / rc=2pass / mbtree=1 / bitrate=500 / ratetol=1.0 / qcomp=0.60 / qpmin=0 / qpmax=69 / qpstep=4 / cplxblur=20.0 / qblur=0.5 / ip_ratio=1.40 / aq=1:1.00
Encoded date : UTC 2014-03-11 09:52:21
Tagged date : UTC 2014-03-11 09:53:23

Audio
ID : 2
Format : AAC
Format/Info : Advanced Audio Codec
Format profile : LC
Codec ID : 40
Duration : 44mn 48s
Bit rate mode : Variable
Bit rate : 128 Kbps
Maximum bit rate : 155 Kbps
Channel count : 2 channels
Channel positions : Front: L R
Sampling rate : 48.0 KHz
Compression mode : Lossy
Stream size : 40.9 MiB (20%)
Encoded date : UTC 2014-03-11 09:53:15
Tagged date : UTC 2014-03-11 09:53:23

Релиз от:



   Похожие торренты   Торрент   Размер 
В этой теме нет новых непрочитанных сообщений. Иерихон / Jericho [S01-02] (2006-2008) WEB-DLRip от Generalfilm | ДТВ

67 | 89

17.6 ГБ

В этой теме нет новых непрочитанных сообщений. Иерихон / Jericho [S01-02] (2006-2008) HDTVRip | P

43 | 10

16.99 ГБ

В этой теме нет новых непрочитанных сообщений. Иерихон / Jericho [S01-02] (2006-2008) WEB-DL 720p | ДТВ, LostFilm

13 | 17

42.64 ГБ

В этой теме нет новых непрочитанных сообщений. Иерихон / Jericho [01x01-07 из 08] (2016) WEB-DLRip от GeneralFilm | Jaskier

35 | 59

3.53 ГБ

В этой теме нет новых непрочитанных сообщений. Иерихон / Jericho [S1] (2006) DVDRip от PlanetaUA

57 | 28

7.86 ГБ

В этой теме нет новых непрочитанных сообщений. Иерихон. Город обреченных / Jericho [S2] (2008) DVDRip

13 | 4

3.06 ГБ

В этой теме нет новых непрочитанных сообщений. Иерихон / Jericho [S01] (2016) WEB-DLRip | FocusStudio

70 | 18

4.82 ГБ




Вы не можете начинать темы
Вы не можете отвечать на сообщения
Вы не можете редактировать свои сообщения
Вы не можете удалять свои сообщения
Вы не можете добавлять вложения

Перейти:  
Для Мосгорсуда, Роскомнадзора и рекламодателей: mosgorsud-torrent[собачка]yandex.ru
 Вход
ppkBB3cker v.2 © 2008-2014 @ PPK
[ Time : 0.070s | 18 Queries | GZIP : Off ]

Торрент трекер RUTOR.IN, Не можете зайти на rutor.org? Какой новый адрес рутор? Какое зеркало рутор? Не работает rutor.org и зеркала? Тогда наш торрент специально для вас. Rutor.in неофициальное зеркало rutor. В случае если у Вас заблокирован rutor или вдруг Вы не можете на него зайти, то Вы без труда сможете скачать бесплатно и без рекламы последние новинки кино, игр, сериалов и прочего у нас, на Rutor.in. Не нужно использовать прокси, чтобы зайти на рутор, достаточно воспользоваться нашим ресурсом. Все новые фильмы, игры, сериалы, книги и музыка за 2013 и 2014 годы через торрент бесплатно. Скачивайте фильмы в хорошем качестве, игры для пк, xbox, playstation без регистрации. У нас вы найдете новые Зарубежные сериалы и Русские сериалы 2013, 2014, 2015 годов. Оставайтесь с нами, качайте любимые фильмы, игры, сериалы, книги и музыку.
cron