img image001 image001 image001 image001 image001 image001 image001 image001 image001 image001 image001 image001 image001 image001 image001

Planets Sun Sun Sun
Статистика раздачи
Автор: Nickolas3434 | Размер: 17.6 ГБ | Добавлен: 15 апр 2014
Раздают: 67    Качают: 89
Скачать торрент
Скачать торрент
Описание торрента

СообщениеДобавлено: 15 апр 2014 

Информация о фильме
Название: Иерихон
Оригинальное название: Jericho
Год выхода: 2006
Жанр: Укажите жанры, разделяя запятыми
Режиссер: Джон Тёртелтауб
В ролях: Скит Ульрих, Эшли Скотт, Спрэг Грэйден, Эрик Кнудсен, Ленни Джеймс, Джералд МакРэйни, Памела Рид, Кеннет Митчелл, Майкл Гэтсон, Брэл Бейер, Крис Крамер, Шошанна Штерн, Дарби Стенчфилд, Бет Грант

О фильме:
Ранним солнечным утром, когда ничто не предвещало беды, жители небольшого провинциального американского городка Иерихон в штате Канзас увидели на горизонте медленно, но зловеще растущее атомное облако. Им ещё только предстоит узнать, что в результате террористической ядерной атаки пострадали крупнейшие города 23 американских штатов. Хаос, царящий на улицах некогда спокойного городка, вызван страхом перед неизвестностью - жители Иерихона не знают, что именно произошло, насколько опасен взрыв и есть ли выжившие за пределами их города. Именно этот первобытный страх превращает Иерихон в подобие ада - полностью разрушенные системы связи с внешним миром, угроза радиоактивного заражения, отсутствие запаса продовольствия пугают людей и будят в некоторых гражданах панику, злость, ненависть, порой граничащие с безумием. Но чтобы выжить, жителям Иерихона нужно во что бы то ни стало держаться вместе и научиться жить заново.



Страна: США
Студия: CBS Paramount Network Television, Junction Entertainment
Продолжительность: 29 х ~ 00:45:00
Перевод: Профессиональный (многоголосый, закадровый) [ДТВ]

Файл
Формат: AVI
Качество: WEB-DLRip
Видео: XviD, 720x408, ~1804 kbps, 23.976 fps
Звук: AC3, 48.0 KHz, 2 ch, 192 Kbps
Субтитры: Нет

Семпл


General
Complete name : E:KinoIerihon.2006-2008.XviD.WEB-DLRip.GeneralfilmIerihon.S01.2006-2007.XviD.WEB-DLRip.GeneralfilmIerihon.s01e02.2006.XviD.WEB-DLRip.Generalfilm.avi
Format : AVI
Format/Info : Audio Video Interleave
File size : 607 MiB
Duration : 42mn 25s
Overall bit rate : 2 002 Kbps
Writing application : VirtualDubMod 1.5.10.3 | www.virtualdub-fr.org || (build 2550/release)
Writing library : VirtualDubMod build 2550/release

Video
ID : 0
Format : MPEG-4 Visual
Format profile : Advanced Simple@L5
Format settings, BVOP : 2
Format settings, QPel : No
Format settings, GMC : No warppoints
Format settings, Matrix : Default (H.263)
Codec ID : XVID
Codec ID/Hint : XviD
Duration : 42mn 25s
Bit rate : 1 800 Kbps
Width : 720 pixels
Height : 408 pixels
Display aspect ratio : 16:9
Frame rate : 23.976 fps
Color space : YUV
Chroma subsampling : 4:2:0
Bit depth : 8 bits
Scan type : Progressive
Compression mode : Lossy
Bits/(Pixel*Frame) : 0.256
Stream size : 546 MiB (90%)
Writing library : XviD 1.2.1 (UTC 2008-12-04)

Audio
ID : 1
Format : AC-3
Format/Info : Audio Coding 3
Mode extension : CM (complete main)
Format settings, Endianness : Big
Codec ID : 2000
Duration : 42mn 25s
Bit rate mode : Constant
Bit rate : 192 Kbps
Channel count : 2 channels
Channel positions : Front: L R
Sampling rate : 48.0 KHz
Bit depth : 16 bits
Compression mode : Lossy
Stream size : 58.3 MiB (10%)
Alignment : Split accross interleaves
Interleave, duration : 42 ms (1.00 video frame)
Interleave, preload duration : 500 ms

Релиз от:



   Похожие торренты   Торрент   Размер 
В этой теме нет новых непрочитанных сообщений. Иерихон / Jericho [S01-02] (2006-2008) WEB-DLRip от Generalfilm | КПК | ДТВ

43 | 47

5.52 ГБ

В этой теме нет новых непрочитанных сообщений. Иерихон / Jericho [S01-02] (2006-2008) HDTVRip | P

43 | 10

16.99 ГБ

В этой теме нет новых непрочитанных сообщений. Иерихон / Jericho [S01-02] (2006-2008) WEB-DL 720p | ДТВ, LostFilm

13 | 17

42.64 ГБ

В этой теме нет новых непрочитанных сообщений. Иерихон / Jericho [01x01-07 из 08] (2016) WEB-DLRip от GeneralFilm | Jaskier

35 | 59

3.53 ГБ

В этой теме нет новых непрочитанных сообщений. Иерихон / Jericho [S1] (2006) DVDRip от PlanetaUA

57 | 28

7.86 ГБ

В этой теме нет новых непрочитанных сообщений. Иерихон. Город обреченных / Jericho [S2] (2008) DVDRip

13 | 4

3.06 ГБ

В этой теме нет новых непрочитанных сообщений. Иерихон / Jericho [S01] (2016) WEB-DLRip | FocusStudio

70 | 18

4.82 ГБ




Вы не можете начинать темы
Вы не можете отвечать на сообщения
Вы не можете редактировать свои сообщения
Вы не можете удалять свои сообщения
Вы не можете добавлять вложения

Перейти:  
Для Мосгорсуда, Роскомнадзора и рекламодателей: mosgorsud-torrent[собачка]yandex.ru
 Вход
ppkBB3cker v.2 © 2008-2014 @ PPK
[ Time : 0.040s | 17 Queries | GZIP : Off ]

Торрент трекер RUTOR.IN, Не можете зайти на rutor.org? Какой новый адрес рутор? Какое зеркало рутор? Не работает rutor.org и зеркала? Тогда наш торрент специально для вас. Rutor.in неофициальное зеркало rutor. В случае если у Вас заблокирован rutor или вдруг Вы не можете на него зайти, то Вы без труда сможете скачать бесплатно и без рекламы последние новинки кино, игр, сериалов и прочего у нас, на Rutor.in. Не нужно использовать прокси, чтобы зайти на рутор, достаточно воспользоваться нашим ресурсом. Все новые фильмы, игры, сериалы, книги и музыка за 2013 и 2014 годы через торрент бесплатно. Скачивайте фильмы в хорошем качестве, игры для пк, xbox, playstation без регистрации. У нас вы найдете новые Зарубежные сериалы и Русские сериалы 2013, 2014, 2015 годов. Оставайтесь с нами, качайте любимые фильмы, игры, сериалы, книги и музыку.
cron