img image001 image001 image001 image001 image001 image001 image001 image001 image001 image001 image001 image001 image001 image001 image001

Planets Sun Sun Sun
Статистика раздачи
Автор: Nickolas3434 | Размер: 2.41 ГБ | Добавлен: 16 апр 2014
Раздают: 62    Качают: 83
Скачать торрент
Скачать торрент
Описание торрента

СообщениеДобавлено: 16 апр 2014 

Информация о фильме
Название: Разведка / Интеллект
Оригинальное название: Intelligence
Год выхода: 2014
Жанр: Фантастика, боевик
Режиссер: Тим Хантер, Олрик Райли, Роб Бэйли
В ролях: Джош Холлоуэй, Меган Ори, Марж Хелгенбергер, Майкл Рэди, Джеймс Мартинес, Майкл Беняер, Джон Биллингсли, П.Дж. Бирн, Розалинд Чао

О фильме:
Гэбриэл - идеальный разведчик - боец спецслужб с интегрированным в мозг суперкомпьютером. Благодаря этому чипу Гэбриэл становится единственным в мире человеком, способным напрямую подключать своё сознание к глобальной информационной сети и имеет безграничный доступ к Интернету, Wi-Fi, телефонной связи и спутниковому наблюдению. Он может взломать любую базу данных и любой шифр, чтобы защитить Соединенные Штаты. Кибернетическое командование США закрепляет агента секретной службы Райли Нил за Гэбриэлом, чтобы защитить его от внешних угроз и контролировать его склонность к безрассудству, неуважение к правилам и непредсказуемое поведение. Будучи первым живым суперкомпьютером Гэбриэл представляет собой самый ценный технологический актив, когда либо изобретенный в стране, а так же секретное оружие США.



01. Пилот
02. Рэд-Экс
03. Возвращение Мэй Чен
04. Тайны секретной службы
05. Освобождение
06. Нулевой пациент
07. Размер имеет значение
08. Отряд "Дельта"
09. Афины
10. Каин и Габриэль
11. Серый хакер
12. Горизонт событий
13. Быть человеком

Страна: США
Студия: ABC Studios, CBS Television Studios, Vinson Films
Продолжительность: 14 x ~ 00:42:00
Перевод: Профессиональный (многоголосый, закадровый) [LostFilm]

Файл
Формат: MP4
Качество: WEB-DLRip | КПК
Видео: MPEG-4 AVC (x264), 640x360, ~500 kbps, 23.976 fps
Аудио: AAC LC, 48.0 KHz, 2 ch, 128 Kbps
Субтитры: Нет

Семпл


General
Complete name : E:KinoIntelekt.AVC.WEB-DLRip.KPK.GeneralfilmIntelekt.S01.2014.AVC.WEB-DLRip.KPK.LF.GeneralfilmIntelekt.s01e02.2014.AVC.WEB-DLRip.KPK.LF.Generalfilm.mp4
Format : MPEG-4
Format profile : Base Media
Codec ID : isom
File size : 189 MiB
Duration : 41mn 56s
Overall bit rate mode : Variable
Overall bit rate : 630 Kbps
Encoded date : UTC 2014-04-09 11:34:15
Tagged date : UTC 2014-04-09 11:34:15

Video
ID : 1
Format : AVC
Format/Info : Advanced Video Codec
Format profile : Baseline@L4.1
Format settings, CABAC : No
Format settings, ReFrames : 6 frames
Codec ID : avc1
Codec ID/Info : Advanced Video Coding
Duration : 41mn 56s
Bit rate : 500 Kbps
Maximum bit rate : 3 141 Kbps
Width : 640 pixels
Height : 360 pixels
Display aspect ratio : 16:9
Frame rate mode : Constant
Frame rate : 23.976 fps
Color space : YUV
Chroma subsampling : 4:2:0
Bit depth : 8 bits
Scan type : Progressive
Bits/(Pixel*Frame) : 0.091
Stream size : 150 MiB (79%)
Writing library : x264 core 125 r2200 999b753
Encoding settings : cabac=0 / ref=6 / deblock=1:-1:-1 / analyse=0x1:0x111 / me=umh / subme=7 / psy=1 / psy_rd=1.00:0.00 / mixed_ref=0 / me_range=16 / chroma_me=1 / trellis=1 / 8x8dct=0 / cqm=0 / deadzone=21,11 / fast_pskip=0 / chroma_qp_offset=-2 / threads=12 / lookahead_threads=2 / sliced_threads=0 / nr=0 / decimate=1 / interlaced=0 / bluray_compat=0 / constrained_intra=0 / bframes=0 / weightp=0 / keyint=250 / keyint_min=23 / scenecut=40 / intra_refresh=0 / rc_lookahead=60 / rc=2pass / mbtree=1 / bitrate=500 / ratetol=1.0 / qcomp=0.60 / qpmin=0 / qpmax=69 / qpstep=4 / cplxblur=20.0 / qblur=0.5 / ip_ratio=1.40 / aq=1:1.00
Encoded date : UTC 2014-04-09 11:34:15
Tagged date : UTC 2014-04-09 11:34:18

Audio
ID : 2
Format : AAC
Format/Info : Advanced Audio Codec
Format profile : LC
Codec ID : 40
Duration : 41mn 56s
Bit rate mode : Variable
Bit rate : 128 Kbps
Maximum bit rate : 150 Kbps
Channel count : 2 channels
Channel positions : Front: L R
Sampling rate : 48.0 KHz
Compression mode : Lossy
Stream size : 38.4 MiB (20%)
Encoded date : UTC 2014-04-09 11:34:18
Tagged date : UTC 2014-04-09 11:34:18

Релиз от:



   Похожие торренты   Торрент   Размер 
В этой теме нет новых непрочитанных сообщений. Разведка / Интеллект / Intelligence [S01] (2014) WEB-DLRip | LostFilm

57 | 88

8.26 ГБ

В этой теме нет новых непрочитанных сообщений. Разведка / Интеллект / Intelligence [S01] (2014) WEB-DLRip | LostFilm

899 | 726

6.42 ГБ

В этой теме нет новых непрочитанных сообщений. Разведка / Интеллект / Intelligence [01х01-11 из 13] (2014) WEB-DLRip | LostFilm

125 | 309

5.55 ГБ

В этой теме нет новых непрочитанных сообщений. Разведка / Интеллект / Intelligence [01х01-10 из 13] (2014) WEB-DLRip | LostFilm

359 | 1264

5.06 ГБ

В этой теме нет новых непрочитанных сообщений. Разведка / Интеллект / Intelligence [S01] (2014) WEB-DLRip 720p | LostFilm

184 | 216

18.47 ГБ

В этой теме нет новых непрочитанных сообщений. Разведка / Интеллект / Intelligence [01х01-12 из 13] (2014) WEB-DLRip | LostFilm

86 | 176

5.94 ГБ

В этой теме нет новых непрочитанных сообщений. Разведка / Интеллект / Intelligence [01х01-08] (2014) HDTVRip, WEB-DLRip | LostFilm

199 | 215

4.14 ГБ




Вы не можете начинать темы
Вы не можете отвечать на сообщения
Вы не можете редактировать свои сообщения
Вы не можете удалять свои сообщения
Вы не можете добавлять вложения

Перейти:  
Для Мосгорсуда, Роскомнадзора и рекламодателей: mosgorsud-torrent[собачка]yandex.ru
 Вход
ppkBB3cker v.2 © 2008-2014 @ PPK
[ Time : 0.109s | 16 Queries | GZIP : Off ]

Торрент трекер RUTOR.IN, Не можете зайти на rutor.org? Какой новый адрес рутор? Какое зеркало рутор? Не работает rutor.org и зеркала? Тогда наш торрент специально для вас. Rutor.in неофициальное зеркало rutor. В случае если у Вас заблокирован rutor или вдруг Вы не можете на него зайти, то Вы без труда сможете скачать бесплатно и без рекламы последние новинки кино, игр, сериалов и прочего у нас, на Rutor.in. Не нужно использовать прокси, чтобы зайти на рутор, достаточно воспользоваться нашим ресурсом. Все новые фильмы, игры, сериалы, книги и музыка за 2013 и 2014 годы через торрент бесплатно. Скачивайте фильмы в хорошем качестве, игры для пк, xbox, playstation без регистрации. У нас вы найдете новые Зарубежные сериалы и Русские сериалы 2013, 2014, 2015 годов. Оставайтесь с нами, качайте любимые фильмы, игры, сериалы, книги и музыку.