img image001 image001 image001 image001 image001 image001 image001 image001 image001 image001 image001 image001 image001 image001 image001

Planets Sun Sun Sun
Статистика раздачи
Автор: Nickolas3434 | Размер: 2.34 ГБ | Добавлен: 16 апр 2014
Раздают: 51    Качают: 43
Скачать торрент
Скачать торрент
Описание торрента

СообщениеДобавлено: 16 апр 2014 

Информация о фильме
Название: Спираль
Оригинальное название: Helix
Год выхода: 2014
Жанр: Фантастика, триллер
Режиссер: Дуан Кларк, Майк Рол, Брэд Тёрнер
В ролях: Билл Кэмпбелл, Джордан Хэйес, Кира Загорский, Марк Ганиме, Хироюки Санада, Нил Напье, Лучана Карро, Джулиан Кэйси, Кристиан Джада

О фильме:
Смертельный вирус, оказывающий небывалое разрушительное воздействие на организм человека, косит ряды учёных исследовательской базы в Арктике. Группа учёных из Центра по Контролю за Заболеваниями направлена туда расследовать причины эпидемии, и в результате вынуждена вести борьбу за спасение всего человечества.



01. Пилот / Pilot
02. Переносчик / Vector
03. 274 / 274
04. Одиночная нить / Single Strand
05. Белая комната / The White Room
06. Родство / Aniqatiga
07. Нулевой выживший / Survivor Zero
08. Родословная / Bloodline
09. Уровень Экс / Level X
10. Загадка / Fushigi
11. Чёрный дождь / Black Rain
12 Жатва / The Reaping
13 В тени / Dans L'Ombre

Страна: США
Студия: Lynda Obst Productions, Muse Entertainment Enterprises, Sony Pictures Television
Продолжительность: 13 x ~ 00:42:00
Перевод: Профессиональный (многоголосый, закадровый) [NewStudio]

Файл
Формат: MP4
Качество: WEB-DLRip | КПК
Видео: MPEG-4 AVC (x264), 640x360, ~500 kbps, 23.976 fps
Аудио: AAC LC, 48.0 KHz, 2 ch, 128 Kbps
Субтитры: Нет

Семпл


Complete name : E:KinoSpiral.AVC.WEB-DLRip.KPK.GeneralfilmSpiral.S01.2014.AVC.WEB-DLRip.KPK.NS.GeneralfilmSpiral.s01e03.2014.AVC.WEB-DLRip.KPK.NS.Generalfilm.mp4
Format : MPEG-4
Format profile : Base Media
Codec ID : isom
File size : 194 MiB
Duration : 43mn 2s
Overall bit rate mode : Variable
Overall bit rate : 631 Kbps
Encoded date : UTC 2014-04-06 14:57:37
Tagged date : UTC 2014-04-06 14:57:37

Video
ID : 1
Format : AVC
Format/Info : Advanced Video Codec
Format profile : Baseline@L4.1
Format settings, CABAC : No
Format settings, ReFrames : 6 frames
Codec ID : avc1
Codec ID/Info : Advanced Video Coding
Duration : 43mn 2s
Bit rate : 500 Kbps
Maximum bit rate : 3 304 Kbps
Width : 640 pixels
Height : 360 pixels
Display aspect ratio : 16:9
Frame rate mode : Constant
Frame rate : 23.976 fps
Color space : YUV
Chroma subsampling : 4:2:0
Bit depth : 8 bits
Scan type : Progressive
Bits/(Pixel*Frame) : 0.091
Stream size : 154 MiB (79%)
Writing library : x264 core 125 r2200 999b753
Encoding settings : cabac=0 / ref=6 / deblock=1:-1:-1 / analyse=0x1:0x111 / me=umh / subme=7 / psy=1 / psy_rd=1.00:0.00 / mixed_ref=0 / me_range=16 / chroma_me=1 / trellis=1 / 8x8dct=0 / cqm=0 / deadzone=21,11 / fast_pskip=0 / chroma_qp_offset=-2 / threads=12 / lookahead_threads=2 / sliced_threads=0 / nr=0 / decimate=1 / interlaced=0 / bluray_compat=0 / constrained_intra=0 / bframes=0 / weightp=0 / keyint=250 / keyint_min=23 / scenecut=40 / intra_refresh=0 / rc_lookahead=60 / rc=2pass / mbtree=1 / bitrate=500 / ratetol=1.0 / qcomp=0.60 / qpmin=0 / qpmax=69 / qpstep=4 / cplxblur=20.0 / qblur=0.5 / ip_ratio=1.40 / aq=1:1.00
Encoded date : UTC 2014-04-06 14:57:37
Tagged date : UTC 2014-04-06 14:57:41

Audio
ID : 2
Format : AAC
Format/Info : Advanced Audio Codec
Format profile : LC
Codec ID : 40
Duration : 43mn 2s
Bit rate mode : Variable
Bit rate : 128 Kbps
Maximum bit rate : 148 Kbps
Channel count : 2 channels
Channel positions : Front: L R
Sampling rate : 48.0 KHz
Compression mode : Lossy
Stream size : 39.4 MiB (20%)
Encoded date : UTC 2014-04-06 14:57:40
Tagged date : UTC 2014-04-06 14:57:41

Релиз от:



   Похожие торренты   Торрент   Размер 
В этой теме нет новых непрочитанных сообщений. Спираль / Helix [01х01-07] (2014) WEB-DLRip | NewStudio

72 | 156

3.42 ГБ

В этой теме нет новых непрочитанных сообщений. Спираль / Helix [01х01-08] (2014) WEB-DLRip | NewStudio

0 | 2

3.9 ГБ

В этой теме нет новых непрочитанных сообщений. Спираль / Helix [S01] (2014) WEB-DLRip-AVC 1080p l NewStudio

16 | 48

22.93 ГБ

В этой теме нет новых непрочитанных сообщений. Спираль / Helix [S01] (2014) WEB-DLRip от HitWay | NewStudio

30 | 136

9.1 ГБ

В этой теме нет новых непрочитанных сообщений. Спираль / Helix [01х01-06] (2014) WEB-DLRip | NewStudio

56 | 74

2.93 ГБ

В этой теме нет новых непрочитанных сообщений. Спираль / Helix [01x01-07 из 13] (2014) WEB-DLRip от HitWay | NewStudio

39 | 57

4.11 ГБ

В этой теме нет новых непрочитанных сообщений. Спираль / Helix [01x01-11 из 13] (2014) WEB-DLRip от HitWay | NewStudio

25 | 206

6.49 ГБ




Вы не можете начинать темы
Вы не можете отвечать на сообщения
Вы не можете редактировать свои сообщения
Вы не можете удалять свои сообщения
Вы не можете добавлять вложения

Перейти:  
Для Мосгорсуда, Роскомнадзора и рекламодателей: mosgorsud-torrent[собачка]yandex.ru
 Вход
ppkBB3cker v.2 © 2008-2014 @ PPK
[ Time : 0.036s | 15 Queries | GZIP : Off ]

Торрент трекер RUTOR.IN, Не можете зайти на rutor.org? Какой новый адрес рутор? Какое зеркало рутор? Не работает rutor.org и зеркала? Тогда наш торрент специально для вас. Rutor.in неофициальное зеркало rutor. В случае если у Вас заблокирован rutor или вдруг Вы не можете на него зайти, то Вы без труда сможете скачать бесплатно и без рекламы последние новинки кино, игр, сериалов и прочего у нас, на Rutor.in. Не нужно использовать прокси, чтобы зайти на рутор, достаточно воспользоваться нашим ресурсом. Все новые фильмы, игры, сериалы, книги и музыка за 2013 и 2014 годы через торрент бесплатно. Скачивайте фильмы в хорошем качестве, игры для пк, xbox, playstation без регистрации. У нас вы найдете новые Зарубежные сериалы и Русские сериалы 2013, 2014, 2015 годов. Оставайтесь с нами, качайте любимые фильмы, игры, сериалы, книги и музыку.