img image001 image001 image001 image001 image001 image001 image001 image001 image001 image001 image001 image001 image001 image001 image001

Planets Sun Sun Sun
Статистика раздачи
Автор: Nickolas3434 | Размер: 10.89 ГБ | Добавлен: 17 апр 2014
Раздают: 23    Качают: 96
Скачать торрент
Скачать торрент
Описание торрента

СообщениеДобавлено: 17 апр 2014 

Информация о фильме
Название: Царство
Оригинальное название: Reign
Год выхода: 2013
Жанр: фэнтези, драма
Режиссер: Мэттью Хатингс, Брэд Силберлинг
В ролях: Аделаида Кейн, Тоби Регбо, Торранс Кумбс, Меган Фоллоуз, Алан Ван Спрэнг, Селина Синден, Кэйтлин Стэйси, Анна Попплуэлл

О фильме:
Действия разворачиваются в период юности Королевы Шотландии Марии Стюарт, которая должна стать супругой принца Франциска, сына короля Генриха второго, чтобы укрепить политический союз между державами. Мария прибывает во Францию в сопровождении своих фрейлин и знакомится с будущим супругом. Принц явно не заинтересован в этом союзе и всячески пытается ему помешать, так как уже увлечен одной из дворцовых красавиц. Помимо всех интриг и заговоров на политическом уровне со стороны противников свадьбы, незаконнорожденный сын Короля, Бэш, также принимает меры, чтобы разбить пару помолвленных - Марии и Франциска.


Страна: США
Студия: CBS Television Studios, World 2000 Entertainment, Octagon Films
Продолжительность: 17 х 00:42:00
Перевод: Профессиональный многоголосый - Amedia

Файл
Кодек: XviD
Качество: WEB-DLRip
Видео: 720x400 (1.80:1), 23.976 fps, XviD build 50 ~1799 kbps avg, 0.26 bit/pixel
Звук: 48 kHz, AC3 Dolby Digital, 3/2 (L,C,R,l,r) + LFE ch, ~384.00 kbps avg
Субтитры: нет

Семпл

Общее
Полное имя : K:Царство. 2013. WEB-DLRipЦарство. 2013. WEB-DLRip. 4 серия..avi
Формат : AVI
Формат/Информация : Audio Video Interleave
Размер файла : 646 Мбайт
Продолжительность : 41 м.
Общий поток : 2192 Кбит/сек
Программа кодирования : VirtualDubMod 1.5.10.3 | www.virtualdub-fr.org || (build 2550/release)
Библиотека кодирования : VirtualDubMod build 2550/release

Видео
Идентификатор : 0
Формат : MPEG-4 Visual
Профиль формата : Advanced Simple@L5
Параметр BVOP формата : 2
Параметр QPel формата : Нет
Параметр GMC формата : Без точки перехода
Параметр матрицы формата : Выборочная
Идентификатор кодека : XVID
Идентификатор кодека/Подсказка : XviD
Продолжительность : 41 м.
Битрейт : 1799 Кбит/сек
Ширина : 720 пикс.
Высота : 400 пикс.
Соотношение сторон : 16:9
Частота кадров : 23,976 кадр/сек
Цветовое пространство : YUV
Подвыборка цветности : 4:2:0
Битовая глубина : 8 бит
Тип развёртки : Прогрессивная
Метод сжатия : С потерями
Бит/(Пиксели*Кадры) : 0.261
Размер потока : 530 Мбайт (82%)
Библиотека кодирования : XviD 1.2.1 (UTC 2008-12-04)

Аудио
Идентификатор : 1
Формат : AC-3
Формат/Информация : Audio Coding 3
Расширение режима : CM (complete main)
Идентификатор кодека : 2000
Продолжительность : 41 м.
Вид битрейта : Постоянный
Битрейт : 384 Кбит/сек
Каналы : 6 каналов
Расположение каналов : Front: L C R, Side: L R, LFE
Частота : 48,0 КГц
Битовая глубина : 16 бит
Метод сжатия : С потерями
Размер потока : 113 Мбайт (18%)
Выравнивание : Разделение по промежуткам
Продолжительность промежутка : 42 мс. (1,00 видеокадр)
Время предзагрузки промежутка : 500 ms




   Похожие торренты   Торрент   Размер 
В этой теме нет новых непрочитанных сообщений. Царство / Reign [01x01-16 из 22] (2013) WEB-DLRip | Amedia

24 | 90

10.25 ГБ

В этой теме нет новых непрочитанных сообщений. Царство / Reign [01x01-12 из 22] (2013) WEB-DLRip | Amedia

33 | 136

5.13 ГБ

В этой теме нет новых непрочитанных сообщений. Царство / Reign [01x01-18 из 22] (2013) WEB-DLRip | Amedia

17 | 38

11.54 ГБ

В этой теме нет новых непрочитанных сообщений. Царство / Reign [01x01-17 из 22] (2013) WEB-DLRip | Amedia

70 | 287

7.26 ГБ

В этой теме нет новых непрочитанных сообщений. Царство / Reign [01x01-21 из 22] (2013) WEB-DLRip | Amedia

4 | 2

13.45 ГБ

В этой теме нет новых непрочитанных сообщений. Царство / Reign [01x01-14 из 22] (2013) WEB-DLRip | Amedia

24 | 124

8.96 ГБ

В этой теме нет новых непрочитанных сообщений. Царство / Reign [01x01-16 из 22] (2013) WEB-DLRip | Amedia

35 | 145

6.83 ГБ




Вы не можете начинать темы
Вы не можете отвечать на сообщения
Вы не можете редактировать свои сообщения
Вы не можете удалять свои сообщения
Вы не можете добавлять вложения

Перейти:  
Для Мосгорсуда, Роскомнадзора и рекламодателей: mosgorsud-torrent[собачка]yandex.ru
 Вход
ppkBB3cker v.2 © 2008-2014 @ PPK
[ Time : 0.600s | 16 Queries | GZIP : On ]

Торрент трекер RUTOR.IN, Не можете зайти на rutor.org? Какой новый адрес рутор? Какое зеркало рутор? Не работает rutor.org и зеркала? Тогда наш торрент специально для вас. Rutor.in неофициальное зеркало rutor. В случае если у Вас заблокирован rutor или вдруг Вы не можете на него зайти, то Вы без труда сможете скачать бесплатно и без рекламы последние новинки кино, игр, сериалов и прочего у нас, на Rutor.in. Не нужно использовать прокси, чтобы зайти на рутор, достаточно воспользоваться нашим ресурсом. Все новые фильмы, игры, сериалы, книги и музыка за 2013 и 2014 годы через торрент бесплатно. Скачивайте фильмы в хорошем качестве, игры для пк, xbox, playstation без регистрации. У нас вы найдете новые Зарубежные сериалы и Русские сериалы 2013, 2014, 2015 годов. Оставайтесь с нами, качайте любимые фильмы, игры, сериалы, книги и музыку.