img image001 image001 image001 image001 image001 image001 image001 image001 image001 image001 image001 image001 image001 image001 image001

Planets Sun Sun Sun
Статистика раздачи
Автор: Nickolas3434 | Размер: 964.95 МБ | Добавлен: 18 апр 2014
Раздают: 44    Качают: 16
Скачать торрент
Скачать торрент
Описание торрента

СообщениеДобавлено: 18 апр 2014 

Информация о фильме

Оригинальное название: Предельная глубина
Год выпуска: 2014
Жанр: Мелодрама, приключение
Выпущено: Россия
Режиссер: Константин Максимов
В ролях: Антон Батырев, Светлана Устинова, Максим Онищенко, Юрий Лагута
О фильме: Главный герой получает выгодное предложение. Его таланты дайвера необходимы для того, чтобы достать ценный сейф с затонувшего много лет назад судна. Вот только возникает проблема с нанимателями, одна из которых когда-то была самым близким человеком для ныряльщика. Большие деньги, старые страсти и уединенные морские просторы - убийственный коктейль, который угрожает жизни всех на борту яхты.
Файл

Качество: WEB-DLRip (AVC)
Видео: MPEG-4 AVC, 2900 Кбит/с, 1024x576, 25 кадр/с
Аудио: AC3, 2 ch, 192 Кбит/с
Размер: 965 MБ
Продолжительность: 1 x ~ 00:43:00
Язык: Русский
Внимание, раздача ведется путем добавления новых серий.
Общее
Уникальный идентификатор : 172929878258899547604986816227114662742 (0x82191544D96507DD82AC591AA692BB56)
Полное имя : D:ЗагрузкиPredelnaya.Glubina.2014.ExKinoRayPredelnaya.Glubina.(01.serija).2014.x264.WEB-DLRip(AVC).ExKinoRay.mkv
Формат : Matroska
Версия формата : Version 2
Размер файла : 965 Мбайт
Продолжительность : 43 м.
Общий поток : 3094 Кбит/сек
Название фильма : Предельная глубина.1-я серия.2014.Rip by: ollan
Дата кодирования : UTC 2014-04-17 14:47:51
Программа кодирования : mkvmerge v5.6.0 ('Kenya Kane') built on May 27 2012 16:44:04
Библиотека кодирования : libebml v1.2.3 + libmatroska v1.3.0

Видео
Идентификатор : 1
Формат : AVC
Формат/Информация : Advanced Video Codec
Профиль формата : High@L4.1
Параметр CABAC формата : Да
Параметр ReFrames формата : 9 кадров
Идентификатор кодека : V_MPEG4/ISO/AVC
Продолжительность : 43 м.
Битрейт : 2900 Кбит/сек
Ширина : 1024 пикселя
Высота : 576 пикселей
Соотношение сторон : 16:9
Режим частоты кадров : Постоянный
Частота кадров : 25,000 кадров/сек
Цветовое пространство : YUV
Субдискретизация насыщенности : 4:2:0
Битовая глубина : 8 бит
Тип развёртки : Прогрессивная
Бит/(Пиксели*Кадры) : 0.197
Размер потока : 886 Мбайт (92%)
Библиотека кодирования : x264 core 125 r2200 999b753
Настройки программы : cabac=1 / ref=9 / deblock=1:-2:-2 / analyse=0x3:0x133 / me=umh / subme=11 / psy=1 / psy_rd=1.00:0.10 / mixed_ref=1 / me_range=32 / chroma_me=1 / trellis=2 / 8x8dct=1 / cqm=0 / deadzone=21,11 / fast_pskip=0 / chroma_qp_offset=-3 / threads=12 / lookahead_threads=2 / sliced_threads=0 / nr=0 / decimate=0 / interlaced=0 / bluray_compat=0 / constrained_intra=0 / bframes=9 / b_pyramid=2 / b_adapt=2 / b_bias=0 / direct=3 / weightb=1 / open_gop=0 / weightp=2 / keyint=250 / keyint_min=25 / scenecut=40 / intra_refresh=0 / rc_lookahead=40 / rc=2pass / mbtree=1 / bitrate=2900 / ratetol=1.0 / qcomp=0.60 / qpmin=0 / qpmax=69 / qpstep=4 / cplxblur=20.0 / qblur=0.5 / ip_ratio=1.40 / aq=1:1.00
Язык : Russian
Default : Да
Forced : Нет

Аудио
Идентификатор : 2
Формат : AC-3
Формат/Информация : Audio Coding 3
Расширение режима : CM (complete main)
Параметр Endianness формата : Big
Идентификатор кодека : A_AC3
Продолжительность : 43 м.
Вид битрейта : Постоянный
Битрейт : 192 Кбит/сек
Каналы : 2 канала
Расположение каналов : Front: L R
Частота : 48,0 КГц
Битовая глубина : 16 бит
Метод сжатия : С потерями
Размер потока : 59,9 Мбайт (6%)
Язык : Russian
Default : Да
Forced : Нет








Релиз от: Rip by:



   Похожие торренты   Торрент   Размер 
В этой теме нет новых непрочитанных сообщений. Предельная глубина [01-04 из 04] (2014) WEB-DLRip-AVC от ExKinoRay

197 | 123

3.51 ГБ

В этой теме нет новых непрочитанных сообщений. Предельная глубина [01-04 из 04] (2014) WEB-DLRip

2892 | 1419

2.08 ГБ

В этой теме нет новых непрочитанных сообщений. Предельная глубина [01-04 из 04] (2014) WEB-DL 720p от MediaClub

663 | 396

2.41 ГБ

В этой теме нет новых непрочитанных сообщений. Предельная глубина / Submerged (2005) DVDRip от Lebanon

73 | 14

1.36 ГБ

В этой теме нет новых непрочитанных сообщений. Предельная глубина / Submerged (2005) BDRip от HQCLUB

5 | 0

1.46 ГБ

В этой теме нет новых непрочитанных сообщений. Предельная глубина / Submerged (2005) BDRip 1080p | Р, А

59 | 19

8.25 ГБ

В этой теме нет новых непрочитанных сообщений. К2: Предельная высота / K2: The Ultimate High (1991) DVDRip от ExKinoRay

5 | 3

1.47 ГБ




Вы не можете начинать темы
Вы не можете отвечать на сообщения
Вы не можете редактировать свои сообщения
Вы не можете удалять свои сообщения
Вы не можете добавлять вложения

Перейти:  
Для Мосгорсуда, Роскомнадзора и рекламодателей: mosgorsud-torrent[собачка]yandex.ru
 Вход
ppkBB3cker v.2 © 2008-2014 @ PPK
[ Time : 0.030s | 17 Queries | GZIP : Off ]

Торрент трекер RUTOR.IN, Не можете зайти на rutor.org? Какой новый адрес рутор? Какое зеркало рутор? Не работает rutor.org и зеркала? Тогда наш торрент специально для вас. Rutor.in неофициальное зеркало rutor. В случае если у Вас заблокирован rutor или вдруг Вы не можете на него зайти, то Вы без труда сможете скачать бесплатно и без рекламы последние новинки кино, игр, сериалов и прочего у нас, на Rutor.in. Не нужно использовать прокси, чтобы зайти на рутор, достаточно воспользоваться нашим ресурсом. Все новые фильмы, игры, сериалы, книги и музыка за 2013 и 2014 годы через торрент бесплатно. Скачивайте фильмы в хорошем качестве, игры для пк, xbox, playstation без регистрации. У нас вы найдете новые Зарубежные сериалы и Русские сериалы 2013, 2014, 2015 годов. Оставайтесь с нами, качайте любимые фильмы, игры, сериалы, книги и музыку.