img image001 image001 image001 image001 image001 image001 image001 image001 image001 image001 image001 image001 image001 image001 image001

Planets Sun Sun Sun
Статистика раздачи
Автор: Nickolas3434 | Размер: 3.36 ГБ | Добавлен: 21 апр 2014
Раздают: 201    Качают: 318
Скачать торрент
Скачать торрент
Описание торрента

СообщениеДобавлено: 21 апр 2014 

Название: Cотня
Оригинальное название: The 100
Год выпуска: 2014
Жанр: Фантастика
Режиссер: Дин Уайт, Джон Беринг, Милан Чейлов
В ролях: Элиза Тейлор, Мари Авгеропулос, Сачин Сахель, Линдси Морган, Женевьев Бюкнер, Ричард Хэрмон, Джарод Джозеф, Челси Рейст, Крис Браунинг, Джош Ссеттуба

Описание: После ста лет проведенных на орбите по окончании ядерной войны, руководство космической станции из-за перенаселения решает в качестве подопытных крыс отправить сотню малолетних подростков обратно на Землю, чтобы выяснить пригодна она для выживания или нет... Приземлившиеся 98 человек сразу делятся на две группировки - "умных и красивых" - пытающихся выжить и быдло. Первых меньшинство и они ломятся искать старый бункер с консервами, пока вторые радуются свежеприобретенной свободе на голодный желудок. Земля оправилась от войны, но не полностью - по ней бродят звери-мутанты, в реках обитают опасные хищники, а в лесах - кое что пострашнее...

Выпущено: США, Bonanza Productions, Alloy Entertainment, Warner Bros. Television
Продолжительность: 5 x ~ 00:41:40
Перевод: Профессиональный многоголосый - LostFilm

Качество: WEB-DLRip
Видео: XviD, 1550 Кбит/с, 720x400
Аудио rus: AC3, 6 ch, 384 Кбит/с
Аудио eng: AC3, 6 ch, 384 Кбит/с

01. Пилотная серия / Pilot
02. Выжить на Земле / Earth Skills
03. Умереть на Земле / Earth Kills
04. Закон Мерфи / Murphy's Law
05. Последний луч сумерек / Twilight's Last Gleaming
Полное имя : E:The.100.tahiyThe.100.s01e01.tahiy.avi
Формат : AVI
Формат/Информация : Audio Video Interleave
Размер файла : 686 Мбайт
Продолжительность : 41 м.
Общий поток : 2316 Кбит/сек
Название фильма : The.100.tahiy
Программа кодирования : VirtualDubMod 1.5.10.3 | www.virtualdub-fr.org || (build 2550/release)

Видео
Идентификатор : 0
Формат : MPEG-4 Visual
Профиль формата : Advanced Simple@L5
Параметр BVOP формата : 1
Параметр QPel формата : Нет
Параметр GMC формата : Без точки перехода
Параметр матрицы формата : Default (MPEG)
Идентификатор кодека : XVID
Идентификатор кодека/Подсказка : XviD
Продолжительность : 41 м.
Битрейт : 1534 Кбит/сек
Ширина : 720 пикселей
Высота : 400 пикселей
Соотношение сторон : 16:9
Частота кадров : 23,976 кадра/сек
Цветовое пространство : YUV
Субдискретизация насыщенности : 4:2:0
Битовая глубина : 8 бит
Тип развёртки : Прогрессивная
Метод сжатия : С потерями
Бит/(Пиксели*Кадры) : 0.222
Размер потока : 454 Мбайт (66%)
Библиотека кодирования : XviD 1.2.1 (UTC 2008-12-04)

Аудио #1
Идентификатор : 1
Формат : AC-3
Формат/Информация : Audio Coding 3
Расширение режима : CM (complete main)
Параметр Endianness формата : Big
Идентификатор кодека : 2000
Продолжительность : 41 м.
Вид битрейта : Постоянный
Битрейт : 384 Кбит/сек
Каналы : 6 каналов
Расположение каналов : Front: L C R, Side: L R, LFE
Частота : 48,0 КГц
Битовая глубина : 16 бит
Метод сжатия : С потерями
Размер потока : 114 Мбайт (17%)
Выравнивание : Разделение по промежуткам
Продолжительность промежутка : 42 мс. (1,00 видеокадр)
Время предзагрузки промежутка : 500 мс.

Аудио #2
Идентификатор : 2
Формат : AC-3
Формат/Информация : Audio Coding 3
Расширение режима : CM (complete main)
Параметр Endianness формата : Big
Идентификатор кодека : 2000
Продолжительность : 41 м.
Вид битрейта : Постоянный
Битрейт : 384 Кбит/сек
Каналы : 6 каналов
Расположение каналов : Front: L C R, Side: L R, LFE
Частота : 48,0 КГц
Битовая глубина : 16 бит
Метод сжатия : С потерями
Размер потока : 114 Мбайт (17%)
Выравнивание : Разделение по промежуткам
Продолжительность промежутка : 42 мс. (1,00 видеокадр)
Время предзагрузки промежутка : 500 мс.





Раздача ведётся путём добавления новых серий; при каждом добавлении создаётся новый торрент. Чтобы начать докачку новой серии, пользователям необходимо сделать следующее:
(1) остановить скачивание,
(2) удалить старый торрент у себя из клиента (старые серии удалять не надо),
(3) скачать новый торрент и запустить его у себя в клиенте вместо старого, при этом указать клиенту путь в старую папку куда и должно происходить скачивание новых серий.

Ваш клиент при этом должен произвести хеширование (проверку) старой папки (если не производит сам - помогите ему сделать это), и будет докачивать только те серии которых у вас ещё нет. Старые серии при этом не удаляются, а продолжают раздаваться!

Eсли вы уже удалили старые серии, то предотвратить повторную закачку старых серий можно, отжав галочку в соответствующих местах при запуске нового торрента. По возможности, желательно не удалять старые серии как можно дольше чтобы релизёр не столько продолжал раздавать старые серии, а смог сконцентрироваться на новых.
Ссылка на ютуб
Ссылка на DepositFiles
Ссылка на клиент 2.2.1 При установке не обновляйте!!!
1) Выделяем торрент одним нажатием левой кнопкой мыши.



2) Заходим на вкладку "Files (Файлы)"



3) И меняем нажатием правой кнопкой мыши приоритет на "Normal (нормальный)"





   Похожие торренты   Торрент   Размер 
В этой теме нет новых непрочитанных сообщений. Сотня / 100 / The 100 / The Hundred [01x01-06 из 13] (2014) WEB-DLRip | LostFilm

131 | 181

4.05 ГБ

В этой теме нет новых непрочитанных сообщений. Сотня / 100 / The 100 / The Hundred [01x01-03 из 13] (2014) WEB-DLRip | LostFilm

144 | 162

2.04 ГБ

В этой теме нет новых непрочитанных сообщений. Сотня / 100 / The 100 / The Hundred [01x01-07 из 13] (2014) WEB-DLRip | LostFilm

287 | 283

3.31 ГБ

В этой теме нет новых непрочитанных сообщений. Сотня / 100 / The 100 / The Hundred [01x01 из 13] (2014) WEB-DLRip | LostFilm

257 | 25

550.49 МБ

В этой теме нет новых непрочитанных сообщений. Сотня / 100 / The 100 / The Hundred [01x01-02 из 13] (2014) WEB-DLRip | LostFilm

235 | 166

1.14 ГБ

В этой теме нет новых непрочитанных сообщений. Сотня / 100 / The 100 / The Hundred [01x01-10 из 13] (2014) WEB-DLRip | LostFilm

73 | 144

4.59 ГБ

В этой теме нет новых непрочитанных сообщений. Сотня / 100 / The 100 / The Hundred [01x01-03 из 13] (2014) WEB-DLRip | LostFilm

370 | 391

1.58 ГБ




Вы не можете начинать темы
Вы не можете отвечать на сообщения
Вы не можете редактировать свои сообщения
Вы не можете удалять свои сообщения
Вы не можете добавлять вложения

Перейти:  
Для Мосгорсуда, Роскомнадзора и рекламодателей: mosgorsud-torrent[собачка]yandex.ru
 Вход
ppkBB3cker v.2 © 2008-2014 @ PPK
[ Time : 0.069s | 15 Queries | GZIP : Off ]

Торрент трекер RUTOR.IN, Не можете зайти на rutor.org? Какой новый адрес рутор? Какое зеркало рутор? Не работает rutor.org и зеркала? Тогда наш торрент специально для вас. Rutor.in неофициальное зеркало rutor. В случае если у Вас заблокирован rutor или вдруг Вы не можете на него зайти, то Вы без труда сможете скачать бесплатно и без рекламы последние новинки кино, игр, сериалов и прочего у нас, на Rutor.in. Не нужно использовать прокси, чтобы зайти на рутор, достаточно воспользоваться нашим ресурсом. Все новые фильмы, игры, сериалы, книги и музыка за 2013 и 2014 годы через торрент бесплатно. Скачивайте фильмы в хорошем качестве, игры для пк, xbox, playstation без регистрации. У нас вы найдете новые Зарубежные сериалы и Русские сериалы 2013, 2014, 2015 годов. Оставайтесь с нами, качайте любимые фильмы, игры, сериалы, книги и музыку.