img image001 image001 image001 image001 image001 image001 image001 image001 image001 image001 image001 image001 image001 image001 image001

Planets Sun Sun Sun
Статистика раздачи
Автор: Nickolas3434 | Размер: 3.41 ГБ | Добавлен: 21 апр 2014
Раздают: 98    Качают: 47
Скачать торрент
Скачать торрент
Описание торрента

СообщениеДобавлено: 21 апр 2014 


Страна: Россия / Марс Медиа Энтертейнмент

Жанр: комедия
Год выпуска: 2014
Продолжительность: ~00:49:00 - серия

Перевод: Не требуется
Cубтитры: нет
Оригинальная аудиодорожка: русский

Режиссер: Валерий Рожнов

В ролях: Эльвира Болгова, Игорь Петренко, Вилле Хаапасало, Полина Сыркина, Ольга Битюцкая, Виктор Бунаков, Арий Чумаков, Юлия Беретта, Наталья Тищенко, Михаил Сегенюк...

Описание: Можно ли сделать головокружительную карьеру за один день?! У Ильи Петровича Соломатина это получилось. А все потому, что он — полный тезка экс-супруга начальницы Ирины. Только вот карьера становится совсем «совсем неважным» ни для Него, ни для Нее, ни для мальчика Васи…



Качество: DVDRip / DVD9 R5
Формат: AVI

Видео: 720x400 (16:9), 25.000 fps, XviD ~ 2000 kbps avg, 0.278 bit/pixel
Аудио: 48 kHz, Dolby AC3, 6 ch, 448 kbps, русский

Раздача от:

Общее
Полное имя : Papa.naprokat.2014.O.DVDRip_[New-team]_by_avproh\01.avi
Формат : AVI
Формат/Информация : Audio Video Interleave
Размер файла : 873 Мбайт
Продолжительность : 49 м.
Общий поток : 2457 Кбит/сек
Программа кодирования : VirtualDubMod 1.5.10.3 | www.virtualdub-fr.org || (build 2550/release)
Библиотека кодирования : VirtualDubMod build 2550/release

Видео
Идентификатор : 0
Формат : MPEG-4 Visual
Профиль формата : Advanced Simple@L5
Параметр BVOP формата : 1
Параметр QPel формата : Нет
Параметр GMC формата : Без точки перехода
Параметр матрицы формата : Выборочная
Идентификатор кодека : XVID
Идентификатор кодека/Подсказка : XviD
Продолжительность : 49 м.
Битрейт : 2000 Кбит/сек
Ширина : 720 пикселей
Высота : 400 пикселей
Соотношение сторон : 16:9
Частота кадров : 25,000 кадров/сек
Цветовое пространство : YUV
Субдискретизация насыщенности : 4:2:0
Битовая глубина : 8 бит
Тип развёртки : Прогрессивная
Метод сжатия : С потерями
Бит/(Пиксели*Кадры) : 0.278
Размер потока : 710 Мбайт (81%)
Библиотека кодирования : XviD 73

Аудио
Идентификатор : 1
Формат : AC-3
Формат/Информация : Audio Coding 3
Расширение режима : CM (complete main)
Параметр Endianness формата : Big
Идентификатор кодека : 2000
Продолжительность : 49 м.
Вид битрейта : Постоянный
Битрейт : 448 Кбит/сек
Каналы : 6 каналов
Расположение каналов : Front: L C R, Side: L R, LFE
Частота : 48,0 КГц
Битовая глубина : 16 бит
Метод сжатия : С потерями
Размер потока : 159 Мбайт (18%)
Выравнивание : Разделение по промежуткам
Продолжительность промежутка : 40 мс. (1,00 видеокадр)
Время предзагрузки промежутка : 500 мс.



http://rutor.org/torrent/333310/
SATRip->DVDRip видео http://screenshotcomparison.com/comparison/71274
SATRip->DVDRip аудио http://screenshotcomparison.com/comparison/71275 - у конкурента звук MP3, 2 ch, 192 Кбит/с, в моем релизе АС3, 6 ch, 448 Кбит/с.

http://rutor.org/torrent/333322/
WEBDLRip->DVDRip видео http://screenshotcomparison.com/comparison/71277
WEBDLRip->DVDRip аудио http://screenshotcomparison.com/comparison/71278 - у конкурента звук MP3, 2 ch, 128 Кбит/с, в моем релизе читай выше.



   Похожие торренты   Торрент   Размер 
В этой теме нет новых непрочитанных сообщений. Папа напрокат [01-04 из 04] (2011) DVDRip-AVC от New-Team | лицензия

75 | 50

3.41 ГБ

В этой теме нет новых непрочитанных сообщений. Папа напрокат [01-04 из 04] (2011) DVD9 R5 от New-Team | лицензия

15 | 18

7.67 ГБ

В этой теме нет новых непрочитанных сообщений. Папа напрокат (2008) DVDRip от Pasha74

31 | 13

1.35 ГБ

В этой теме нет новых непрочитанных сообщений. Папа напрокат [01-04 из 04] (2014) WEB-DLRip

21 | 3

2.34 ГБ

В этой теме нет новых непрочитанных сообщений. Папа напрокат (2008) WEB-DLRip

43 | 19

1.45 ГБ

В этой теме нет новых непрочитанных сообщений. Папа напрокат [01-04 из 04] (2014) SATRip

1030 | 283

2.16 ГБ

В этой теме нет новых непрочитанных сообщений. Папа напрокат [01-04 из 04] (2014) WEB-DL 720p от MediaClub

66 | 5

2.77 ГБ




Вы не можете начинать темы
Вы не можете отвечать на сообщения
Вы не можете редактировать свои сообщения
Вы не можете удалять свои сообщения
Вы не можете добавлять вложения

Перейти:  
Для Мосгорсуда, Роскомнадзора и рекламодателей: mosgorsud-torrent[собачка]yandex.ru
 Вход
ppkBB3cker v.2 © 2008-2014 @ PPK
[ Time : 0.072s | 16 Queries | GZIP : Off ]

Торрент трекер RUTOR.IN, Не можете зайти на rutor.org? Какой новый адрес рутор? Какое зеркало рутор? Не работает rutor.org и зеркала? Тогда наш торрент специально для вас. Rutor.in неофициальное зеркало rutor. В случае если у Вас заблокирован rutor или вдруг Вы не можете на него зайти, то Вы без труда сможете скачать бесплатно и без рекламы последние новинки кино, игр, сериалов и прочего у нас, на Rutor.in. Не нужно использовать прокси, чтобы зайти на рутор, достаточно воспользоваться нашим ресурсом. Все новые фильмы, игры, сериалы, книги и музыка за 2013 и 2014 годы через торрент бесплатно. Скачивайте фильмы в хорошем качестве, игры для пк, xbox, playstation без регистрации. У нас вы найдете новые Зарубежные сериалы и Русские сериалы 2013, 2014, 2015 годов. Оставайтесь с нами, качайте любимые фильмы, игры, сериалы, книги и музыку.
cron