img image001 image001 image001 image001 image001 image001 image001 image001 image001 image001 image001 image001 image001 image001 image001

Planets Sun Sun Sun
Статистика раздачи
Автор: Nickolas3434 | Размер: 3.41 ГБ | Добавлен: 21 апр 2014
Раздают: 75    Качают: 50
Скачать торрент
Скачать торрент
Описание торрента

СообщениеДобавлено: 21 апр 2014 


Страна: Россия / Марс Медиа Энтертейнмент

Жанр: комедия
Год выпуска: 2014
Продолжительность: ~00:49:00 - серия

Перевод: Не требуется
Cубтитры: нет
Оригинальная аудиодорожка: русский

Режиссер: Валерий Рожнов

В ролях: Эльвира Болгова, Игорь Петренко, Вилле Хаапасало, Полина Сыркина, Ольга Битюцкая, Виктор Бунаков, Арий Чумаков, Юлия Беретта, Наталья Тищенко, Михаил Сегенюк...

Описание: Можно ли сделать головокружительную карьеру за один день?! У Ильи Петровича Соломатина это получилось. А все потому, что он — полный тезка экс-супруга начальницы Ирины. Только вот карьера становится совсем «совсем неважным» ни для Него, ни для Нее, ни для мальчика Васи…



Качество: DVDRip-AVC / DVD9 R5
Формат: MKV

Видео: 720x572@1024x572 (16:9), 25.000 fps, MPEG-4 AVC ~ 2007 kbps avg, 0.195 bit/pixel
Аудио: 48 kHz, Dolby AC3, 6 ch, 448 kbps, русский

Раздача от:

Общее
Полное имя : Papa.naprokat.2014.O.DVDRip-AVC_[New-team]_by_avproh\01.mkv
Формат : Matroska
Версия формата : Version 2
Размер файла : 873 Мбайт
Продолжительность : 49 м.
Общий поток : 2456 Кбит/сек
Дата кодирования : UTC 2014-04-20 23:59:05
Программа кодирования : mkvmerge v6.1.0 ('Old Devil') built on Mar 4 2013 09:10:42
Библиотека кодирования : libebml v1.3.0 + libmatroska v1.4.0

Видео
Идентификатор : 1
Формат : AVC
Формат/Информация : Advanced Video Codec
Профиль формата : High@L4.1
Параметр CABAC формата : Да
Параметр ReFrames формата : 8 кадров
Идентификатор кодека : V_MPEG4/ISO/AVC
Продолжительность : 49 м.
Битрейт : 2007 Кбит/сек
Ширина : 720 пикселей
Высота : 572 пикселя
Соотношение сторон : 16:9
Режим частоты кадров : Постоянный
Частота кадров : 25,000 кадров/сек
Цветовое пространство : YUV
Субдискретизация насыщенности : 4:2:0
Битовая глубина : 8 бит
Тип развёртки : Прогрессивная
Бит/(Пиксели*Кадры) : 0.195
Размер потока : 696 Мбайт (80%)
Библиотека кодирования : x264 core 138 r2356 a1d3d17
Настройки программы : cabac=1 / ref=8 / deblock=1:-2:-1 / analyse=0x3:0x113 / me=umh / subme=10 / psy=1 / psy_rd=1.00:0.05 / mixed_ref=1 / me_range=32 / chroma_me=1 / trellis=2 / 8x8dct=1 / cqm=0 / deadzone=21,11 / fast_pskip=0 / chroma_qp_offset=-3 / threads=9 / lookahead_threads=1 / sliced_threads=0 / nr=0 / decimate=0 / interlaced=0 / bluray_compat=0 / constrained_intra=0 / bframes=8 / b_pyramid=2 / b_adapt=2 / b_bias=0 / direct=3 / weightb=1 / open_gop=0 / weightp=2 / keyint=250 / keyint_min=25 / scenecut=40 / intra_refresh=0 / rc=2pass / mbtree=0 / bitrate=2007 / ratetol=1.0 / qcomp=0.60 / qpmin=0 / qpmax=69 / qpstep=4 / cplxblur=20.0 / qblur=0.5 / ip_ratio=1.40 / pb_ratio=1.30 / aq=1:1.00
Default : Да
Forced : Нет

Аудио
Идентификатор : 2
Формат : AC-3
Формат/Информация : Audio Coding 3
Расширение режима : CM (complete main)
Параметр Endianness формата : Big
Идентификатор кодека : A_AC3
Продолжительность : 49 м.
Вид битрейта : Постоянный
Битрейт : 448 Кбит/сек
Каналы : 6 каналов
Расположение каналов : Front: L C R, Side: L R, LFE
Частота : 48,0 КГц
Битовая глубина : 16 бит
Метод сжатия : С потерями
Размер потока : 159 Мбайт (18%)
Default : Да
Forced : Нет





   Похожие торренты   Торрент   Размер 
В этой теме нет новых непрочитанных сообщений. Папа напрокат [01-04 из 04] (2011) DVDRip от New-Team | лицензия

98 | 47

3.41 ГБ

В этой теме нет новых непрочитанных сообщений. Папа напрокат [01-04 из 04] (2011) DVD9 R5 от New-Team | лицензия

14 | 19

7.67 ГБ

В этой теме нет новых непрочитанных сообщений. Папа напрокат (2008) DVDRip от Pasha74

31 | 13

1.35 ГБ

В этой теме нет новых непрочитанных сообщений. Папа напрокат [01-04 из 04] (2014) WEB-DLRip

21 | 3

2.34 ГБ

В этой теме нет новых непрочитанных сообщений. Папа напрокат (2008) WEB-DLRip

43 | 19

1.45 ГБ

В этой теме нет новых непрочитанных сообщений. Папа напрокат [01-04 из 04] (2014) SATRip

1030 | 283

2.16 ГБ

В этой теме нет новых непрочитанных сообщений. Папа напрокат [01-04 из 04] (2014) WEB-DLRip от Generalfilm

377 | 65

2.19 ГБ




Вы не можете начинать темы
Вы не можете отвечать на сообщения
Вы не можете редактировать свои сообщения
Вы не можете удалять свои сообщения
Вы не можете добавлять вложения

Перейти:  
Для Мосгорсуда, Роскомнадзора и рекламодателей: mosgorsud-torrent[собачка]yandex.ru
 Вход
ppkBB3cker v.2 © 2008-2014 @ PPK
[ Time : 0.033s | 15 Queries | GZIP : Off ]

Торрент трекер RUTOR.IN, Не можете зайти на rutor.org? Какой новый адрес рутор? Какое зеркало рутор? Не работает rutor.org и зеркала? Тогда наш торрент специально для вас. Rutor.in неофициальное зеркало rutor. В случае если у Вас заблокирован rutor или вдруг Вы не можете на него зайти, то Вы без труда сможете скачать бесплатно и без рекламы последние новинки кино, игр, сериалов и прочего у нас, на Rutor.in. Не нужно использовать прокси, чтобы зайти на рутор, достаточно воспользоваться нашим ресурсом. Все новые фильмы, игры, сериалы, книги и музыка за 2013 и 2014 годы через торрент бесплатно. Скачивайте фильмы в хорошем качестве, игры для пк, xbox, playstation без регистрации. У нас вы найдете новые Зарубежные сериалы и Русские сериалы 2013, 2014, 2015 годов. Оставайтесь с нами, качайте любимые фильмы, игры, сериалы, книги и музыку.