img image001 image001 image001 image001 image001 image001 image001 image001 image001 image001 image001 image001 image001 image001 image001

Planets Sun Sun Sun
Статистика раздачи
Автор: Nickolas3434 | Размер: 3.23 ГБ | Добавлен: 28 апр 2014
Раздают: 95    Качают: 17
Скачать торрент
Скачать торрент
Описание торрента

СообщениеДобавлено: 28 апр 2014 


Страна: Россия / "МАРМОТ-ФИЛЬМ"

Жанр: военный, драма
Год выпуска: 2014
Продолжительность: ~00:53:00 - серия

Перевод: Не требуется
Cубтитры: нет
Оригинальная аудиодорожка: русский

Режиссер: Александр Велединский

В ролях: Ксения Раппопорт, Алексей Серебряков, Андрей Мерзликин, Дмитрий Назаров, Юрий Кузнецов, Виталий Коваленко, Яков Шамшин, Филипп Ершов, Олег Фёдоров, Андрюс Паулавичюс...

Описание: Блокадный Ленинград. Зима 1942-го. Советская контрразведка узнает, что немцы готовят диверсию на «Дороге жизни» — единственном пути, по которому в город доставляется продовольствие и другие грузы. Скорее всего, диверсант — один из водителей «полуторок», работающих на замерзшем Ладожском озере. Найти и остановить врага должен капитан НКВД Сергиенко…



Качество: DVDRip-AVC / DVD9 R5
Формат: MKV

Видео: 720x576@1024x576 (16:9), 25.000 fps, MPEG-4 AVC ~ 2007 kbps avg, 0.194 bit/pixel
Аудио: 48 kHz, Dolby AC3, 2 ch, 192 kbps, русский

Раздача от:

Общее
Полное имя : Ladoga.2013.O.DVDRip-AVC_[New-Team]_by_avproh\01.mkv
Формат : Matroska
Версия формата : Version 2
Размер файла : 830 Мбайт
Продолжительность : 52 м.
Общий поток : 2199 Кбит/сек
Дата кодирования : UTC 2014-04-23 01:32:39
Программа кодирования : mkvmerge v6.1.0 ('Old Devil') built on Mar 4 2013 09:10:42
Библиотека кодирования : libebml v1.3.0 + libmatroska v1.4.0

Видео
Идентификатор : 1
Формат : AVC
Формат/Информация : Advanced Video Codec
Профиль формата : High@L4.1
Параметр CABAC формата : Да
Параметр ReFrames формата : 8 кадров
Идентификатор кодека : V_MPEG4/ISO/AVC
Продолжительность : 52 м.
Битрейт : 2007 Кбит/сек
Ширина : 720 пикселей
Высота : 576 пикселей
Соотношение сторон : 16:9
Режим частоты кадров : Постоянный
Частота кадров : 25,000 кадров/сек
Стандарт вещания : PAL
Цветовое пространство : YUV
Субдискретизация насыщенности : 4:2:0
Битовая глубина : 8 бит
Тип развёртки : Прогрессивная
Бит/(Пиксели*Кадры) : 0.194
Размер потока : 741 Мбайт (89%)
Библиотека кодирования : x264 core 138 r2356 a1d3d17
Настройки программы : cabac=1 / ref=8 / deblock=1:-2:-1 / analyse=0x3:0x113 / me=umh / subme=10 / psy=1 / psy_rd=1.00:0.05 / mixed_ref=1 / me_range=32 / chroma_me=1 / trellis=2 / 8x8dct=1 / cqm=0 / deadzone=21,11 / fast_pskip=0 / chroma_qp_offset=-3 / threads=9 / lookahead_threads=1 / sliced_threads=0 / nr=0 / decimate=0 / interlaced=0 / bluray_compat=0 / constrained_intra=0 / bframes=8 / b_pyramid=2 / b_adapt=2 / b_bias=0 / direct=3 / weightb=1 / open_gop=0 / weightp=2 / keyint=250 / keyint_min=25 / scenecut=40 / intra_refresh=0 / rc=2pass / mbtree=0 / bitrate=2007 / ratetol=1.0 / qcomp=0.60 / qpmin=0 / qpmax=69 / qpstep=4 / cplxblur=20.0 / qblur=0.5 / ip_ratio=1.40 / pb_ratio=1.30 / aq=1:1.00
Default : Да
Forced : Нет

Аудио
Идентификатор : 2
Формат : AC-3
Формат/Информация : Audio Coding 3
Расширение режима : CM (complete main)
Параметр Endianness формата : Big
Идентификатор кодека : A_AC3
Продолжительность : 52 м.
Вид битрейта : Постоянный
Битрейт : 192 Кбит/сек
Каналы : 2 канала
Расположение каналов : Front: L R
Частота : 48,0 КГц
Битовая глубина : 16 бит
Метод сжатия : С потерями
Размер потока : 72,4 Мбайт (9%)
Default : Да
Forced : Нет





   Похожие торренты   Торрент   Размер 
В этой теме нет новых непрочитанных сообщений. Ладога [01-04 из 04] (2014) DVDRip от New-Team | лицензия

253 | 48

3.24 ГБ

В этой теме нет новых непрочитанных сообщений. Ладога [01-04 из 04] (2014) DVD9 R5 от New-Team | лицензия

21 | 7

7.43 ГБ

В этой теме нет новых непрочитанных сообщений. Ладога [01-04 из 04] (2014) DVD5 | Лицензия

152 | 44

4.26 ГБ

В этой теме нет новых непрочитанных сообщений. Ладога [01-04 из 04] (2013) HDTVRip от New-Team

177 | 24

2.19 ГБ

В этой теме нет новых непрочитанных сообщений. Ладога [01-04 из 04] (2013) HDTVRip-AVC от New-Team

174 | 23

4.37 ГБ

В этой теме нет новых непрочитанных сообщений. Ладога [01-04 из 04] (2013) HDTVRip от New-Team

337 | 41

1.46 ГБ

В этой теме нет новых непрочитанных сообщений. Ладога - дорога жизни [01-04 из 04] (2014) SATRip

225 | 22

2.59 ГБ




Вы не можете начинать темы
Вы не можете отвечать на сообщения
Вы не можете редактировать свои сообщения
Вы не можете удалять свои сообщения
Вы не можете добавлять вложения

Перейти:  
Для Мосгорсуда, Роскомнадзора и рекламодателей: mosgorsud-torrent[собачка]yandex.ru
 Вход
ppkBB3cker v.2 © 2008-2014 @ PPK
[ Time : 0.061s | 17 Queries | GZIP : Off ]

cron