img image001 image001 image001 image001 image001 image001 image001 image001 image001 image001 image001 image001 image001 image001 image001

Planets Sun Sun Sun
Статистика раздачи
Автор: Nickolas3434 | Размер: 16.27 ГБ | Добавлен: 28 апр 2014
Раздают: 9    Качают: 19
Скачать торрент
Скачать торрент
Описание торрента

СообщениеДобавлено: 28 апр 2014 

Информация о фильме

Оригинальное название: Склифосовский (Склиф)
Год выпуска: 2014
Жанр: Драма, мелодрама
Выпущено: Россия, Кинокомпания "Русское"
Режиссер: Юлия Краснова
В ролях: Максим Аверин, Мария Куликова, Дмитрий Миллер, Ольга Павловец, Лаура Кеосаян, Марина Могилевская, Андрей Барило, Владимир Жеребцов, Константин Юшкевич, Антон Эльдаров, Александр Сирин, Анна Якунина, Екатерина Травова, Александр Чернявский, Надежда Горелова, Владимир Довжик, Евгения Дмитриева, Елена Яковлева, Евгений Михеев, Сергей Жигунов, Евгения Калинец, Владимир Кошеваров, Андрей Гусев, Максим Битюков, Пётр Кудряшов, Наталья Чернявская
О фильме: Любимые герои «Склифосовского» вновь возвращаются на телеэкраны. Они продолжают спасать жизни, ежедневно принимая судьбоносные решения; и, почти лишенные свободного времени, пытаются построить своё личное счастье. После ухода Зименской, в Склиф неожиданно вернется Марина Нарочинская, назначенная главврачом. Ее возвращение станет тяжелым испытанием для Брагина, теперь примерного семьянина. Немало шокирующих сюрпризов преподнесет его молодая жена, кроткая медсестра Лена.. Мир в семье Пастуховых пошатнёт смещение Петра с должности зав.отделения: после появления ребенка Полина уже не сможет сквозь пальцы смотреть на инфантильность своего мужа в быту. Салама ждет настоящая взрослая жизнь с его избранницей Юлей. Неискушенный, наивный парень прежде и не подозревал, как нелегко ему будет сохранить отношения с девушкой, воспитанной на совершенно иных ценностях. остику предстоит ответить себе на главный вопрос – что же ему дороже: работа на износ за небольшие деньги в Склифе или размеренная обеспеченная жизнь? Зрители увидят развитие романа «ботаника» Яна и мечтательной медсестры Третьяковой. Перемены придут в отношения Нины с Неклюдовым. В Склифе появятся и новые герои со своими непростыми судьбами..

Файл

Качество: WEB-DLRip (AVC)
Видео: MPEG-4 AVC, ~ 2550 Кбит/с, 1024x494, 1024x496, 1024х576, 25 кадр/с
Аудио: AC3, 2 ch, 192 Кбит/с
Размер: 16.27 ГБ
Продолжительность: 19 x ~ 00:46:00
Язык: Русский
За исходник, большое спасибо nikolspup
Внимание, раздача ведется путем добавления новых серий!
x264 [info]: frame I:617 Avg QP:14.00 size: 79424
x264 [info]: frame P:18890 Avg QP:17.83 size: 26830
x264 [info]: frame B:49879 Avg QP:20.56 size: 6595

Общее
Уникальный идентификатор : 198534239962246378610702346932719762615 (0x955C4DC41050BED6A43307364460BCB7)
Полное имя : C:DownloadsSklifosovskij.(3.sezon).2014.WEB-DLRip.(AVC).ExKinoRaySklifosovskij.3.(01.serija).2014.x264.WEB-DLRip.(AVC).ExKinoRay.mkv
Формат : Matroska
Версия формата : Version 2
Размер файла : 908 Мбайт
Продолжительность : 46 м.
Общий поток : 2744 Кбит/сек
Название фильма : Склифосовский.3 сезон 1 серия.Rip by: ollan
Дата кодирования : UTC 2014-04-20 16:44:03
Программа кодирования : mkvmerge v5.6.0 ('Kenya Kane') built on May 27 2012 16:44:04
Библиотека кодирования : libebml v1.2.3 + libmatroska v1.3.0

Видео
Идентификатор : 1
Формат : AVC
Формат/Информация : Advanced Video Codec
Профиль формата : High@L4.1
Параметр CABAC формата : Да
Параметр ReFrames формата : 9 кадров
Идентификатор кодека : V_MPEG4/ISO/AVC
Продолжительность : 46 м.
Битрейт : 2550 Кбит/сек
Ширина : 1024 пикселя
Высота : 576 пикселей
Соотношение сторон : 16:9
Режим частоты кадров : Постоянный
Частота кадров : 25,000 кадров/сек
Цветовое пространство : YUV
Субдискретизация насыщенности : 4:2:0
Битовая глубина : 8 бит
Тип развёртки : Прогрессивная
Бит/(Пиксели*Кадры) : 0.173
Размер потока : 826 Мбайт (91%)
Библиотека кодирования : x264 core 125 r2200 999b753
Настройки программы : cabac=1 / ref=9 / deblock=1:-2:-2 / analyse=0x3:0x133 / me=umh / subme=11 / psy=1 / psy_rd=1.00:0.10 / mixed_ref=1 / me_range=32 / chroma_me=1 / trellis=2 / 8x8dct=1 / cqm=0 / deadzone=21,11 / fast_pskip=0 / chroma_qp_offset=-3 / threads=12 / lookahead_threads=2 / sliced_threads=0 / nr=0 / decimate=0 / interlaced=0 / bluray_compat=0 / constrained_intra=0 / bframes=9 / b_pyramid=2 / b_adapt=2 / b_bias=0 / direct=3 / weightb=1 / open_gop=0 / weightp=2 / keyint=250 / keyint_min=25 / scenecut=40 / intra_refresh=0 / rc_lookahead=40 / rc=2pass / mbtree=1 / bitrate=2550 / ratetol=1.0 / qcomp=0.60 / qpmin=0 / qpmax=69 / qpstep=4 / cplxblur=20.0 / qblur=0.5 / ip_ratio=1.40 / aq=1:1.00
Язык : Russian
Default : Да
Forced : Нет

Аудио
Идентификатор : 2
Формат : AC-3
Формат/Информация : Audio Coding 3
Расширение режима : CM (complete main)
Параметр Endianness формата : Big
Идентификатор кодека : A_AC3
Продолжительность : 46 м.
Вид битрейта : Постоянный
Битрейт : 192 Кбит/сек
Каналы : 2 канала
Расположение каналов : Front: L R
Частота : 48,0 КГц
Битовая глубина : 16 бит
Метод сжатия : С потерями
Размер потока : 63,5 Мбайт (7%)
Язык : Russian
Default : Да
Forced : Нет








Релиз от: Rip by:



   Похожие торренты   Торрент   Размер 
В этой теме нет новых непрочитанных сообщений. Склифосовский 3 / Склиф [03х01 из 24] (2014) WEB-DLRip-AVC от ExKinoRay

7 | 6

907.91 МБ

В этой теме нет новых непрочитанных сообщений. Склифосовский 3 / Склиф [03х01-19 из 24] (2014) WEB-DLRip от ExKinoRay

53 | 130

10.22 ГБ

В этой теме нет новых непрочитанных сообщений. Склифосовский 3 / Склиф [03х01-24 из 24] (2014) WEB-DLRip от ExKinoRay

342 | 300

12.9 ГБ

В этой теме нет новых непрочитанных сообщений. Склифосовский 3 / Склиф [03х01-24 из 24] (2014) WEB-DLRip-AVC от ExKinoRay

16 | 52

20.41 ГБ

В этой теме нет новых непрочитанных сообщений. Склифосовский 3 / Склиф [03х01-09 из 24] (2014) HDTVRip от Files-x

236 | 320

4.83 ГБ

В этой теме нет новых непрочитанных сообщений. Склифосовский 3 / Склиф [03х01-03 из 24] (2014) HDTVRip от Files-x

194 | 88

1.61 ГБ

В этой теме нет новых непрочитанных сообщений. Склифосовский 3 / Склиф [03х01-22 из 24] (2014) HDTVRip от Files-x

19 | 79

11.82 ГБ




Вы не можете начинать темы
Вы не можете отвечать на сообщения
Вы не можете редактировать свои сообщения
Вы не можете удалять свои сообщения
Вы не можете добавлять вложения

Перейти:  
Для Мосгорсуда, Роскомнадзора и рекламодателей: mosgorsud-torrent[собачка]yandex.ru
 Вход
ppkBB3cker v.2 © 2008-2014 @ PPK
[ Time : 0.043s | 15 Queries | GZIP : Off ]

Торрент трекер RUTOR.IN, Не можете зайти на rutor.org? Какой новый адрес рутор? Какое зеркало рутор? Не работает rutor.org и зеркала? Тогда наш торрент специально для вас. Rutor.in неофициальное зеркало rutor. В случае если у Вас заблокирован rutor или вдруг Вы не можете на него зайти, то Вы без труда сможете скачать бесплатно и без рекламы последние новинки кино, игр, сериалов и прочего у нас, на Rutor.in. Не нужно использовать прокси, чтобы зайти на рутор, достаточно воспользоваться нашим ресурсом. Все новые фильмы, игры, сериалы, книги и музыка за 2013 и 2014 годы через торрент бесплатно. Скачивайте фильмы в хорошем качестве, игры для пк, xbox, playstation без регистрации. У нас вы найдете новые Зарубежные сериалы и Русские сериалы 2013, 2014, 2015 годов. Оставайтесь с нами, качайте любимые фильмы, игры, сериалы, книги и музыку.