img image001 image001 image001 image001 image001 image001 image001 image001 image001 image001 image001 image001 image001 image001 image001

Planets Sun Sun Sun
Статистика раздачи
Автор: Nickolas3434 | Размер: 10.22 ГБ | Добавлен: 28 апр 2014
Раздают: 53    Качают: 130
Скачать торрент
Скачать торрент
Описание торрента

СообщениеДобавлено: 28 апр 2014 

Информация о фильме

Оригинальное название: Склифосовский (Склиф)
Год выпуска: 2014
Жанр: Драма, мелодрама
Выпущено: Россия, Кинокомпания "Русское"
Режиссер: Юлия Краснова
В ролях: Максим Аверин, Мария Куликова, Дмитрий Миллер, Ольга Павловец, Лаура Кеосаян, Марина Могилевская, Андрей Барило, Владимир Жеребцов, Константин Юшкевич, Антон Эльдаров, Александр Сирин, Анна Якунина, Екатерина Травова, Александр Чернявский, Надежда Горелова, Владимир Довжик, Евгения Дмитриева, Елена Яковлева, Евгений Михеев, Сергей Жигунов, Евгения Калинец, Владимир Кошеваров, Андрей Гусев, Максим Битюков, Пётр Кудряшов, Наталья Чернявская
О фильме: Любимые герои «Склифосовского» вновь возвращаются на телеэкраны. Они продолжают спасать жизни, ежедневно принимая судьбоносные решения; и, почти лишенные свободного времени, пытаются построить своё личное счастье. После ухода Зименской, в Склиф неожиданно вернется Марина Нарочинская, назначенная главврачом. Ее возвращение станет тяжелым испытанием для Брагина, теперь примерного семьянина. Немало шокирующих сюрпризов преподнесет его молодая жена, кроткая медсестра Лена.. Мир в семье Пастуховых пошатнёт смещение Петра с должности зав.отделения: после появления ребенка Полина уже не сможет сквозь пальцы смотреть на инфантильность своего мужа в быту. Салама ждет настоящая взрослая жизнь с его избранницей Юлей. Неискушенный, наивный парень прежде и не подозревал, как нелегко ему будет сохранить отношения с девушкой, воспитанной на совершенно иных ценностях. остику предстоит ответить себе на главный вопрос – что же ему дороже: работа на износ за небольшие деньги в Склифе или размеренная обеспеченная жизнь? Зрители увидят развитие романа «ботаника» Яна и мечтательной медсестры Третьяковой. Перемены придут в отношения Нины с Неклюдовым. В Склифе появятся и новые герои со своими непростыми судьбами..

Файл

Качество: WEB-DLRip
Видео: XviD, ~ 1500 Кбит/с, 720x352, 720x400, 25 кадр/с
Аудио: AC3, 2 ch, 192 Кбит/с
Размер: 10.22 ГБ
Продолжительность: 19 x ~ 00:46:00
Язык: Русский
За исходник, большое спасибо nikolspup
Внимание, раздача ведется путем добавления новых серий!
Общее
Полное имя : C:DownloadsSklifosovskij.(3.sezon).2014.WEB-DLRip.ExKinoRaySklifosovskij.3.(1.serija).2014.WEB-DLRip.ExKinoRay.avi
Формат : AVI
Формат/Информация : Audio Video Interleave
Размер файла : 551 Мбайт
Продолжительность : 46 м.
Общий поток : 1665 Кбит/сек
Программа кодирования : VirtualDubMod 1.5.10.3 | www.virtualdub-fr.org || (build 2550/release)
Библиотека кодирования : VirtualDubMod build 2550/release

Видео
Идентификатор : 0
Формат : MPEG-4 Visual
Профиль формата : Advanced Simple@L5
Параметр BVOP формата : 1
Параметр QPel формата : Нет
Параметр GMC формата : Без точки перехода
Параметр матрицы формата : Выборочная
Идентификатор кодека : XVID
Идентификатор кодека/Подсказка : XviD
Продолжительность : 46 м.
Битрейт : 1463 Кбит/сек
Ширина : 720 пикселей
Высота : 400 пикселей
Соотношение сторон : 16:9
Частота кадров : 25,000 кадров/сек
Цветовое пространство : YUV
Субдискретизация насыщенности : 4:2:0
Битовая глубина : 8 бит
Тип развёртки : Прогрессивная
Метод сжатия : С потерями
Бит/(Пиксели*Кадры) : 0.203
Размер потока : 484 Мбайт (88%)
Библиотека кодирования : XviD 1.2.1 (UTC 2008-12-04)

Аудио
Идентификатор : 1
Формат : AC-3
Формат/Информация : Audio Coding 3
Расширение режима : CM (complete main)
Параметр Endianness формата : Big
Идентификатор кодека : 2000
Продолжительность : 46 м.
Вид битрейта : Постоянный
Битрейт : 192 Кбит/сек
Каналы : 2 канала
Расположение каналов : Front: L R
Частота : 48,0 КГц
Битовая глубина : 16 бит
Метод сжатия : С потерями
Размер потока : 63,5 Мбайт (12%)
Выравнивание : Разделение по промежуткам
Продолжительность промежутка : 40 мс. (1,00 видеокадр)
Время предзагрузки промежутка : 500 мс.








Релиз от: Rip by:



   Похожие торренты   Торрент   Размер 
В этой теме нет новых непрочитанных сообщений. Склифосовский 3 / Склиф [03х01-19 из 24] (2014) WEB-DLRip-AVC от ExKinoRay

9 | 19

16.27 ГБ

В этой теме нет новых непрочитанных сообщений. Склифосовский 3 / Склиф [03х01-24 из 24] (2014) WEB-DLRip от ExKinoRay

342 | 300

12.9 ГБ

В этой теме нет новых непрочитанных сообщений. Склифосовский 3 / Склиф [03х01-24 из 24] (2014) WEB-DLRip-AVC от ExKinoRay

16 | 52

20.41 ГБ

В этой теме нет новых непрочитанных сообщений. Склифосовский 3 / Склиф [03х01 из 24] (2014) WEB-DLRip-AVC от ExKinoRay

7 | 6

907.91 МБ

В этой теме нет новых непрочитанных сообщений. Склифосовский 3 / Склиф [03х01-22 из 24] (2014) HDTVRip от Files-x

19 | 79

11.82 ГБ

В этой теме нет новых непрочитанных сообщений. Склифосовский 3 / Склиф [03х01-13 из 24] (2014) WEB-DL 1080p от MediaClub

5 | 36

16.81 ГБ

В этой теме нет новых непрочитанных сообщений. Склифосовский 3 / Склиф [03х01-19 из 24] (2014) HDTVRip от Files-x

112 | 151

10.2 ГБ




Вы не можете начинать темы
Вы не можете отвечать на сообщения
Вы не можете редактировать свои сообщения
Вы не можете удалять свои сообщения
Вы не можете добавлять вложения

Перейти:  
Для Мосгорсуда, Роскомнадзора и рекламодателей: mosgorsud-torrent[собачка]yandex.ru
 Вход
ppkBB3cker v.2 © 2008-2014 @ PPK
[ Time : 0.026s | 15 Queries | GZIP : On ]

Торрент трекер RUTOR.IN, Не можете зайти на rutor.org? Какой новый адрес рутор? Какое зеркало рутор? Не работает rutor.org и зеркала? Тогда наш торрент специально для вас. Rutor.in неофициальное зеркало rutor. В случае если у Вас заблокирован rutor или вдруг Вы не можете на него зайти, то Вы без труда сможете скачать бесплатно и без рекламы последние новинки кино, игр, сериалов и прочего у нас, на Rutor.in. Не нужно использовать прокси, чтобы зайти на рутор, достаточно воспользоваться нашим ресурсом. Все новые фильмы, игры, сериалы, книги и музыка за 2013 и 2014 годы через торрент бесплатно. Скачивайте фильмы в хорошем качестве, игры для пк, xbox, playstation без регистрации. У нас вы найдете новые Зарубежные сериалы и Русские сериалы 2013, 2014, 2015 годов. Оставайтесь с нами, качайте любимые фильмы, игры, сериалы, книги и музыку.