img image001 image001 image001 image001 image001 image001 image001 image001 image001 image001 image001 image001 image001 image001 image001

Planets Sun Sun Sun
Статистика раздачи
Автор: Nickolas3434 | Размер: 2.88 ГБ | Добавлен: 28 апр 2014
Раздают: 124    Качают: 89
Скачать торрент
Скачать торрент
Описание торрента

СообщениеДобавлено: 28 апр 2014 

Информация о фильме
Название: Хранилище 13
Оригинальное название: Warehouse 13
Год выхода: 2014
Жанр: фантастика, триллер, драма
Режиссер: Крис Фишер, Константин Макрис, Тауния Маккирнан
В ролях: Эдди МакКлинток, Джоэнн Келли, Сол Рубинек, Эллисон Скальотти, Аарон Эшмор, Си Си Эйч Паундер, Линдсей Вагнер, Келли Ху, Рене Обержонуа, Марк Шеппард, Полли Уолкер и др.

О фильме:
«Хранилище 13» (Warehouse 13) - научно-фантастический сериал, рассказывающий об агентах Секретной службы Соединенных Штатов, занимающихся расследованием историй содержащихся на секретном складе таинственных вещей, обладающих сверхъестественными силами.
На протяжении столетий правительство США собирало в секретном «Хранилище 13» различные странные вещи, тем или иным образом попавшие в руки правительственных агентов. Реликвии и артефакты, сверхъестественное и инопланетное - у каждой из вещей своя загадка, своя тайна...

Страна: США
Продолжительность: ~ 00:43:00
Перевод: Профессиональный (многоголосый закадровый) LostFilm

Работа со звуком: Nez

Файл
Кодек: x264
Качество: WEB-DL 720p
Видео: 1280x720 at 23.976 fps, MPEG-4 AVC, ~ 3942 kbps avg
Звук:
Аудио 1: Russian: 48 kHz, AC3, 3/2 (L,C,R,l,r) + LFE ch, ~384.00 kbps avg |Многоголосый закадровый, LostFilm|
Аудио 2: English: 48 kHz, AC3, 3/2 (L,C,R,l,r) + LFE ch, ~384.00 kbps avg
Субтитры: английские
01. Бесконечный ужас / Endless Terror
02. Секретные службы / Secret Services
03. A Faire to Remember
04. Savage Seduction

Общее
Уникальный идентификатор : 170957716704916284343101939103104125232 (0x809D4232783F9FC28CA4053A51BA4930)
Полное имя : Warehouse.13.S05.720p.WEB-DL.Rus.Eng.HDCLUBWarehouse.13.S05E01.720p.WEB-DL.Rus.Eng.HDCLUB.mkv
Формат : Matroska
Версия формата : Version 4 / Version 2
Размер файла : 1,44 Гбайт
Продолжительность : 43 м.
Общий поток : 4805 Кбит/сек
Название фильма : Warehouse 13 5x01 (2014) - Release for HDCLUB
Дата кодирования : UTC 2014-04-18 05:45:31
Программа кодирования : mkvmerge v6.7.0 ('Back to the Ground') 64bit built on Jan 8 2014 15:10:52
Библиотека кодирования : libebml v1.3.0 + libmatroska v1.4.1

Видео
Идентификатор : 1
Формат : AVC
Формат/Информация : Advanced Video Codec
Профиль формата : High@L3.1
Параметр CABAC формата : Нет
Параметр ReFrames формата : 2 кадра
Идентификатор кодека : V_MPEG4/ISO/AVC
Продолжительность : 43 м.
Битрейт : 3942 Кбит/сек
Ширина : 1280 пикселей
Высота : 720 пикселей
Соотношение сторон : 16:9
Режим частоты кадров : Постоянный
Частота кадров : 23,976 кадра/сек
Цветовое пространство : YUV
Субдискретизация насыщенности : 4:2:0
Битовая глубина : 8 бит
Тип развёртки : Прогрессивная
Бит/(Пиксели*Кадры) : 0.178
Размер потока : 1,18 Гбайт (82%)
Заголовок : Warehouse 13 5x01: Endless Terror - Release for HDCLUB
Язык : English
Default : Да
Forced : Нет
Основные цвета : BT.709
Характеристики трансфера : BT.709
Коэффициенты матрицы : BT.709

Аудио #1
Идентификатор : 2
Формат : AC-3
Формат/Информация : Audio Coding 3
Расширение режима : CM (complete main)
Параметр Endianness формата : Big
Идентификатор кодека : A_AC3
Продолжительность : 43 м.
Вид битрейта : Постоянный
Битрейт : 384 Кбит/сек
Каналы : 6 каналов
Расположение каналов : Front: L C R, Side: L R, LFE
Частота : 48,0 КГц
Битовая глубина : 16 бит
Метод сжатия : С потерями
Размер потока : 118 Мбайт (8%)
Заголовок : LostFilm
Язык : Russian
Default : Да
Forced : Нет

Аудио #2
Идентификатор : 3
Формат : AC-3
Формат/Информация : Audio Coding 3
Расширение режима : CM (complete main)
Параметр Endianness формата : Big
Идентификатор кодека : A_AC3
Продолжительность : 43 м.
Вид битрейта : Постоянный
Битрейт : 384 Кбит/сек
Каналы : 6 каналов
Расположение каналов : Front: L C R, Side: L R, LFE
Частота : 48,0 КГц
Битовая глубина : 16 бит
Метод сжатия : С потерями
Размер потока : 118 Мбайт (8%)
Заголовок : English
Язык : English
Default : Нет
Forced : Нет

Текст
Идентификатор : 4
Формат : UTF-8
Идентификатор кодека : S_TEXT/UTF8
Идентификатор кодека/Информация : UTF-8 Plain Text
Заголовок : eng-sub
Язык : English
Default : Нет
Forced : Нет






Релиз от: by kmarats



   Похожие торренты   Торрент   Размер 
В этой теме нет новых непрочитанных сообщений. Хранилище 13 / Warehouse 13 [05x01-05] (2014) WEB-DL 720p от HDClub | LostFilm

27 | 32

7.33 ГБ

В этой теме нет новых непрочитанных сообщений. Хранилище 13 / Warehouse 13 [05x01-03] (2014) WEB-DL 720p от HDClub | LostFilm

73 | 186

4.39 ГБ

В этой теме нет новых непрочитанных сообщений. Хранилище 13 / Warehouse 13 [05x01-05] (2014) WEB-DL 1080p от HDClub | LostFilm

49 | 34

8.78 ГБ

В этой теме нет новых непрочитанных сообщений. Хранилище 13 / Warehouse 13 [05x01] (2014) WEB-DL 720p от HDClub

224 | 79

1.44 ГБ

В этой теме нет новых непрочитанных сообщений. Хранилище 13 / Warehouse 13 [s05] (2014) WEB-DL 720p от HDClub | LostFilm

86 | 134

8.8 ГБ

В этой теме нет новых непрочитанных сообщений. Хранилище 13 / Warehouse 13 [05x01-03] (2014) WEB-DL 1080p от HDClub

16 | 55

5.25 ГБ

В этой теме нет новых непрочитанных сообщений. Хранилище 13 / Warehouse 13 [05x01] (2014) WEB-DL 1080p от HDClub

186 | 31

1.72 ГБ




Вы не можете начинать темы
Вы не можете отвечать на сообщения
Вы не можете редактировать свои сообщения
Вы не можете удалять свои сообщения
Вы не можете добавлять вложения

Перейти:  
Для Мосгорсуда, Роскомнадзора и рекламодателей: mosgorsud-torrent[собачка]yandex.ru
 Вход
ppkBB3cker v.2 © 2008-2014 @ PPK
[ Time : 0.051s | 15 Queries | GZIP : On ]

Торрент трекер RUTOR.IN, Не можете зайти на rutor.org? Какой новый адрес рутор? Какое зеркало рутор? Не работает rutor.org и зеркала? Тогда наш торрент специально для вас. Rutor.in неофициальное зеркало rutor. В случае если у Вас заблокирован rutor или вдруг Вы не можете на него зайти, то Вы без труда сможете скачать бесплатно и без рекламы последние новинки кино, игр, сериалов и прочего у нас, на Rutor.in. Не нужно использовать прокси, чтобы зайти на рутор, достаточно воспользоваться нашим ресурсом. Все новые фильмы, игры, сериалы, книги и музыка за 2013 и 2014 годы через торрент бесплатно. Скачивайте фильмы в хорошем качестве, игры для пк, xbox, playstation без регистрации. У нас вы найдете новые Зарубежные сериалы и Русские сериалы 2013, 2014, 2015 годов. Оставайтесь с нами, качайте любимые фильмы, игры, сериалы, книги и музыку.